»
»

Скачать фильм Рейк / The Rake (Тони Уош) [2018, ужасы, WEBRip-AVC] АVO - торрент

Скачать фильм через торрент бесплатно. Фильм доступен на нашем торрент-трекере бесплатно, без регистрации и смс.

Статистика раздачи
3 [ 0 b/s ] ↑ 699.3 MB ↓ 0 [ 0 b/s ]
Автор Сообщение
Хихикающий доктор
2018-06-14 19:48
Рейк / The Rake
Рейк / The Rake
Перевод: Авторский (одноголосый), субтитры: отсутствуют
Формат: WEBRip-AVC, MKV, H.264, MP3
Страна: США
Режиссер: Тони Уош
Жанр: ужасы
Продолжительность: 01:18:00
Год выпуска: 2018
В ролях: Шинэй Граймс-Бич, Изабелла Мико, Рэйчел Мелвин, Джо Нуньес, Стивен Броди, Джои Бикиччи, Джо Киприано, Джо Маллен, Алекса Насатир
Описание:
Брат и сестра, Бен и Эшли, воссоединились через 20 лет после убийства своих родителей, которых жестоко убил психопат, а затем перерезал себе горло. Но живя в приемной семье, они до сих пор не могут оправиться от психологических травм и неожиданно обнаруживают связь между смертями родителей и сверхъестественном существе, известном как «Рейк».
P.s.
Рейк, или Человек-грабли – это крайне худое существо гуманоидного типа с острыми длинными когтями, из-за которых оно и получило своё прозвище. Информация о нём довольно скудна, так как считается, что власти специально всё скрывают и уничтожают любые документы с упоминанием его имени. Так же как и Тонкий человек, Рейк является популярным героем страшных историй.


[imdb=https://www.imdb.com/title/tt5226192/]

Видео: 1280x534 (2.40:1), 23,976 fps, High@L4.1 ~1050 kbps avg, 0.064 bit/pixel
Аудио: 44.100 kHz, MPEG Layer 3, 2 ch, ~192.00 kbps avg
Трейлеры:

медиа инфо
Раскрыть

Complete name : C:\The.Rake.2018.Xixidok.mkv
Format : Matroska
Format version : Version 4 / Version 2
File size : 699 MiB
Duration : 1 h 18 min
Overall bit rate : 1 244 kb/s
Encoded date : UTC 2018-06-14 14:26:15
Writing application : mkvmerge v8.3.0 ('Over the Horizon') 64bit
Writing library : libebml v1.3.1 + libmatroska v1.4.2

Video
ID : 1
Format : AVC
Format/Info : Advanced Video Codec
Format profile : High@L4.1
Format settings : CABAC / 4 Ref Frames
Format settings, CABAC : Yes
Format settings, RefFrames : 4 frames
Codec ID : V_MPEG4/ISO/AVC
Duration : 1 h 18 min
Bit rate : 1 050 kb/s
Width : 1 280 pixels
Height : 534 pixels
Display aspect ratio : 2.40:1
Original display aspect ratio : 2.40:1
Frame rate mode : Constant
Frame rate : 23.976 (24000/1001) FPS
Color space : YUV
Chroma subsampling : 4:2:0
Bit depth : 8 bits
Scan type : Progressive
Bits/(Pixel*Frame) : 0.064
Stream size : 590 MiB (84%)
Writing library : x264 core 155
Encoding settings : cabac=1 / ref=4 / deblock=1:-1:-1 / analyse=0x3:0x133 / me=umh / subme=9 / psy=1 / psy_rd=1.00:0.15 / mixed_ref=1 / me_range=24 / chroma_me=1 / trellis=2 / 8x8dct=1 / cqm=0 / deadzone=21,11 / fast_pskip=0 / chroma_qp_offset=-3 / threads=17 / lookahead_threads=1 / sliced_threads=0 / nr=0 / decimate=1 / interlaced=0 / bluray_compat=0 / constrained_intra=0 / bframes=3 / b_pyramid=2 / b_adapt=2 / b_bias=0 / direct=3 / weightb=1 / open_gop=0 / weightp=2 / keyint=250 / keyint_min=23 / scenecut=40 / intra_refresh=0 / rc_lookahead=60 / rc=2pass / mbtree=1 / bitrate=1050 / ratetol=1.0 / qcomp=0.60 / qpmin=0 / qpmax=69 / qpstep=4 / cplxblur=20.0 / qblur=0.5 / vbv_maxrate=31250 / vbv_bufsize=31250 / nal_hrd=none / filler=0 / ip_ratio=1.40 / aq=1:1.00
Default : Yes
Forced : No

Audio
ID : 2
Format : MPEG Audio
Format version : Version 1
Format profile : Layer 3
Codec ID : A_MPEG/L3
Codec ID/Hint : MP3
Duration : 1 h 18 min
Bit rate mode : Constant
Bit rate : 192 kb/s
Channel(s) : 2 channels
Sampling rate : 44.1 kHz
Frame rate : 38.281 FPS (1152 SPF)
Compression mode : Lossy
Stream size : 108 MiB (15%)
Default : Yes
Forced : Yes


Информация о торренте:
Размер содержимого: 699.3 MB
Скачан: 749 раз
Статус: Авторская раздача
Зарегистрирован на трекере: 2018-06-14 18:48
Скачать торрент


Поддержи раздачу — поставь лайк:

radevil
2018-06-14 20:17
4-й скрин- солист группы Аэросмит :muxaxa: :ura:
Atarak
2018-06-15 09:03
СПАСИБО Док :thanks: :thanks: :thanks: :nice: :nice: :nice: :drink: ;)
ladygjan
2018-06-15 22:27
мимо, проходим мимо
newer25
2018-06-19 01:17
а рейкбек есть?
да в пень
2018-06-20 12:47
рейк ... рейк .. рейкъявик рейкъявик рейкъявик рейкъявик / маша и медведи
Писать комментарии на нашем торрент-трекере могут только зарегистрированные пользователи.
Зарегистрируйтесь или авторизируйтесь на сайте.