»
»

Скачать фильм Звёздные войны: Пробуждение силы / Star Wars: Episode VII - The Force Awakens (Джей Джей Абрамс) [2015, фантастика, фэнтези, боевик, приключения, BDRip 1080p] DUB - торрент

Нажмите на синюю кнопку, чтобы скачать фильм через торрент бесплатно. Фильм доступен на нашем торрент-трекере бесплатно, без регистрации и смс.

Статистика раздачи
73 [ 0 b/s ] ↑ 11.5 GB ↓ 0 [ 0 b/s ]
Автор Сообщение
Undertaker99
2018-06-14 17:02
Звёздные войны: Пробуждение силы / Star Wars: Episode VII - The Force Awakens
Звёздные войны: Пробуждение силы / Star Wars: Episode VII - The Force Awakens Перевод: Профессиональный (полное дублирование)
Субтитры: Русские, английские
Формат: BDRip, MKV, H.264, AC3
Страна: США
Режиссер: Джей Джей Абрамс
Жанр: фантастика, фэнтези, боевик, приключения
Продолжительность: 02:18:06
Год выпуска: 2015

В ролях: Джон Бойега, Дэйзи Ридли, Оскар Айзек, Адам Драйвер, Донал Глисон, Харрисон Форд, Марк Хэмилл, Кэрри Фишер, Макс фон Сюдов, Энди Серкис

Описание: Через тридцать лет после гибели Дарта Вейдера и Императора галактика по-прежнему в опасности. Государственное образование Первый Орден во главе с их таинственным верховным лидером Сноуком и его правой рукой Кайло Реном идёт по стопам Империи, пытаясь захватить всю власть. В это нелёгкое время судьба сводит юную девушку Рей и бывшего штурмовика Первого Ордена Финна с героями времён войны с Империей - Ханом Соло, Чубаккой и генералом Леей. Вместе они должны дать бой Первому Ордену, однако настаёт тот момент, когда становится очевидно, что лишь джедаи могут остановить Сноука и Кайло Рена. И в галактике в живых остаётся только один...



Видео: 1920x800p (2.40:1), 23.976 fps, AVC MPEG-4 (H.264), High@L4.1 ~10.7 Mbps, 0.290 bit/pixel
Аудио #1: Русский: 48 kHz, AC3 Dolby Digital, 6 ch, ~640 kbps [Профессиональный (полное дублирование)]
Аудио #2: Английский: 48 kHz, AC3 Dolby Digital, 6 ch, ~640 kbps [Оригинал]

Отчет MediaInfo
Format : Matroska
Format version : Version 2
File size : 11.5 GiB
Duration : 2h 18mn
Overall bit rate : 12.0 Mbps
Movie name : Звёздные войны: Пробуждение силы.(2015).BDRip.1080p.[envy]
Encoded date : UTC 2016-05-04 09:00:49
Writing application : mkvmerge v5.8.0 ('No Sleep / Pillow') built on Sep 2 2012 15:37:04
Writing library : libebml v1.2.3 + libmatroska v1.3.0

Video
ID : 1
Format : AVC
Format/Info : Advanced Video Codec
Format profile : High@L4.1
Format settings, CABAC : Yes
Format settings, ReFrames : 5 frames
Codec ID : V_MPEG4/ISO/AVC
Duration : 2h 18mn
Bit rate : 10.7 Mbps
Width : 1 920 pixels
Height : 800 pixels
Display aspect ratio : 2.40:1
Frame rate mode : Constant
Frame rate : 23.976 (24000/1001) fps
Color space : YUV
Chroma subsampling : 4:2:0
Bit depth : 8 bits
Scan type : Progressive
Bits/(Pixel*Frame) : 0.290
Stream size : 10.1 GiB (87%)
Title : Звёздные войны: Пробуждение силы.(2015).BDRip.1080p.[envy]
Writing library : x264 core 148 r2692 64f4e24
Encoding settings : cabac=1 / ref=5 / deblock=1:-3:-2 / analyse=0x3:0x133 / me=umh / subme=11 / psy=1 / psy_rd=1.00:0.00 / mixed_ref=1 / me_range=48 / chroma_me=1 / trellis=2 / 8x8dct=1 / cqm=0 / deadzone=21,11 / fast_pskip=0 / chroma_qp_offset=-2 / threads=12 / lookahead_threads=2 / sliced_threads=0 / nr=0 / decimate=1 / interlaced=0 / bluray_compat=0 / constrained_intra=0 / bframes=7 / b_pyramid=2 / b_adapt=2 / b_bias=0 / direct=3 / weightb=1 / open_gop=0 / weightp=2 / keyint=240 / keyint_min=23 / scenecut=40 / intra_refresh=0 / rc=2pass / mbtree=0 / bitrate=10688 / ratetol=2.0 / qcomp=0.60 / qpmin=0 / qpmax=69 / qpstep=4 / cplxblur=20.0 / qblur=0.5 / ip_ratio=1.40 / pb_ratio=1.30 / aq=2:0.70
Language : English
Default : Yes
Forced : No

Audio #1
ID : 2
Format : AC-3
Format/Info : Audio Coding 3
Mode extension : CM (complete main)
Format settings, Endianness : Big
Codec ID : A_AC3
Duration : 2h 18mn
Bit rate mode : Constant
Bit rate : 640 Kbps
Channel(s) : 6 channels
Channel positions : Front: L C R, Side: L R, LFE
Sampling rate : 48.0 KHz
Frame rate : 31.250 fps (1536 spf)
Compression mode : Lossy
Stream size : 632 MiB (5%)
Title : Dub
Language : Russian
Default : Yes
Forced : No

Audio #2
ID : 3
Format : AC-3
Format/Info : Audio Coding 3
Mode extension : CM (complete main)
Format settings, Endianness : Big
Codec ID : A_AC3
Duration : 2h 18mn
Bit rate mode : Constant
Bit rate : 640 Kbps
Channel(s) : 6 channels
Channel positions : Front: L C R, Side: L R, LFE
Sampling rate : 48.0 KHz
Frame rate : 31.250 fps (1536 spf)
Compression mode : Lossy
Stream size : 632 MiB (5%)
Title : Eng
Language : English
Default : No
Forced : No

Text #1
ID : 4
Format : UTF-8
Codec ID : S_TEXT/UTF8
Codec ID/Info : UTF-8 Plain Text
Title : Rus forced
Language : Russian
Default : Yes
Forced : Yes

Text #2
ID : 5
Format : UTF-8
Codec ID : S_TEXT/UTF8
Codec ID/Info : UTF-8 Plain Text
Title : Rus full
Language : Russian
Default : No
Forced : No

Text #3
ID : 6
Format : UTF-8
Codec ID : S_TEXT/UTF8
Codec ID/Info : UTF-8 Plain Text
Title : Eng full
Language : English
Default : No
Forced : No

Menu
00:00:00.000 : :Chapter 01
00:00:09.259 : :Chapter 02
00:01:43.061 : :Chapter 03
00:03:51.856 : :Chapter 04
00:06:12.288 : :Chapter 05
00:09:33.948 : :Chapter 06
00:10:43.559 : :Chapter 07
00:12:35.713 : :Chapter 08
00:13:39.693 : :Chapter 09
00:14:48.220 : :Chapter 10
00:16:45.921 : :Chapter 11
00:18:04.583 : :Chapter 12
00:19:21.535 : :Chapter 13
00:21:26.618 : :Chapter 14
00:24:03.650 : :Chapter 15
00:26:47.022 : :Chapter 16
00:29:54.667 : :Chapter 17
00:31:49.324 : :Chapter 18
00:35:51.774 : :Chapter 19
00:36:40.615 : :Chapter 20
00:37:45.513 : :Chapter 21
00:40:19.250 : :Chapter 22
00:43:39.199 : :Chapter 23
00:45:29.560 : :Chapter 24
00:49:22.918 : :Chapter 25
00:51:19.951 : :Chapter 26
00:54:13.750 : :Chapter 27
00:59:48.793 : :Chapter 28
01:04:16.060 : :Chapter 29
01:08:37.238 : :Chapter 30
01:11:07.221 : :Chapter 31
01:15:16.386 : :Chapter 32
01:16:49.896 : :Chapter 33
01:19:37.522 : :Chapter 34
01:20:56.893 : :Chapter 35
01:25:36.172 : :Chapter 36
01:32:12.568 : :Chapter 37
01:35:29.014 : :Chapter 38
01:36:34.955 : :Chapter 39
01:39:28.629 : :Chapter 40
01:41:29.958 : :Chapter 41
01:42:57.504 : :Chapter 42
01:45:00.002 : :Chapter 43
01:50:33.710 : :Chapter 44
01:53:39.771 : :Chapter 45
01:55:22.165 : :Chapter 46
01:58:05.453 : :Chapter 47
02:01:05.591 : :Chapter 48
02:02:32.678 : :Chapter 49
02:07:07.578 : :Chapter 50

Информация о торренте:
Размер содержимого: 11.5 GB
Скачан: 147 раз
Статус: Проверен
Зарегистрирован на трекере: 2018-06-14 16:02
Скачать торрент


Поддержи раздачу — поставь лайк:
Undertaker99
2018-06-14 16:03
Приятного просмотра!
Мои раздачи

Писать комментарии на нашем торрент-трекере могут только зарегистрированные пользователи.
Зарегистрируйтесь или авторизируйтесь на сайте.