»
»

Скачать фильм В погоне за счастьем / The Pursuit of Happyness (Габриэле Муччино) [2006, драма, биография, BDRip 720p] DUB - торрент

Нажмите на синюю кнопку ниже, чтобы скачать фильм бесплатно через торрент. Фильм доступен на нашем торрент-трекере бесплатно, без регистрации и смс.

Статистика раздачи
146 [ 2.0 KB/s ] ↑ 4.8 GB ↓ 0 [ 0 b/s ]
Автор Сообщение
Undertaker99
2018-06-14 16:45
В погоне за счастьем / The Pursuit of Happyness
В погоне за счастьем / The Pursuit of Happyness Перевод: Профессиональный (полное дублирование)
Субтитры: Отсутствуют
Формат: BDRip, MKV, H.264, AC3
Страна: США
Режиссер: Габриэле Муччино
Жанр: драма, биография
Продолжительность: 01:57:27
Год выпуска: 2006

В ролях: Уилл Смит, Джейден Смит, Тэнди Ньютон, Брайан Хау, Джеймс Карен, Дэн Кастелланета, Курт Фуллер, Такайо Фишер, Кевин Уэст, Дэвид Перл, Скотт Клэйс, Дэвид Ходжес, Доменик Бове, Джордж Чунг

Описание: Крис Гарднер — отец-одиночка. Воспитывая пятилетнего сына, Крис изо всех сил старается сделать так, чтобы ребенок рос счастливым. Работая продавцом, он не может оплатить квартиру, и их выселяют.
Оказавшись на улице, но не желая сдаваться, отец устраивается стажером в брокерскую компанию, рассчитывая получить должность специалиста. Только на протяжении стажировки он не будет получать никаких денег, а стажировка длится 6 месяцев…


[imdb=http://www.imdb.com/title/tt0454921/]

Видео: 1280x532p (2.40:1), 23.976 fps, AVC MPEG-4 (H.264), High@L4.1 ~4504 kbps, 0.276 bit/pixel
Аудио #1: Русский: 48 kHz, AC3 Dolby Digital, 6 ch, ~640 kbps [Профессиональный (полное дублирование)]
Аудио #2: Английский: 48 kHz, AC3 Dolby Digital, 6 ch, ~640 kbps [Оригинал]

Отчет MediaInfo
General
Unique ID : 171577388208594570681724068739670459223 (0x81149A5C7169E27B8FA91047C049C357)
Complete name : C:CREATE264mod1outThe.Pursuit.of.Happyness.2006.BDRip.720p.D.mkv
Format : Matroska
Format version : Version 4 / Version 2
File size : 4.84 GiB
Duration : 1h 57mn
Overall bit rate : 5 902 Kbps
Movie name : The Pursuit of Happyness (2006)
Encoded date : UTC 2014-05-02 08:54:08
Writing application : mkvmerge v6.9.1 ('Blue Panther') 64bit built on Apr 18 2014 18:23:38
Writing library : libebml v1.3.0 + libmatroska v1.4.1
Attachment : Yes

Video
ID : 1
Format : AVC
Format/Info : Advanced Video Codec
Format profile : High@L4.1
Format settings, CABAC : Yes
Format settings, ReFrames : 10 frames
Codec ID : V_MPEG4/ISO/AVC
Duration : 1h 57mn
Bit rate : 4 504 Kbps
Width : 1 280 pixels
Height : 532 pixels
Display aspect ratio : 2.40:1
Frame rate mode : Constant
Frame rate : 23.976 fps
Color space : YUV
Chroma subsampling : 4:2:0
Bit depth : 8 bits
Scan type : Progressive
Bits/(Pixel*Frame) : 0.276
Stream size : 3.70 GiB (76%)
Title : The Pursuit of Happyness (2006)
Language : English
Default : Yes
Forced : No
Matrix coefficients : BT.709

Audio #1
ID : 2
Format : AC-3
Format/Info : Audio Coding 3
Mode extension : CM (complete main)
Format settings, Endianness : Big
Codec ID : A_AC3
Duration : 1h 57mn
Bit rate mode : Constant
Bit rate : 640 Kbps
Channel(s) : 6 channels
Channel positions : Front: L C R, Side: L R, LFE
Sampling rate : 48.0 KHz
Bit depth : 16 bits
Compression mode : Lossy
Stream size : 538 MiB (11%)
Title : Dub
Language : Russian
Default : Yes
Forced : No

Audio #2
ID : 3
Format : AC-3
Format/Info : Audio Coding 3
Mode extension : CM (complete main)
Format settings, Endianness : Big
Codec ID : A_AC3
Duration : 1h 57mn
Bit rate mode : Constant
Bit rate : 640 Kbps
Channel(s) : 6 channels
Channel positions : Front: L C R, Side: L R, LFE
Sampling rate : 48.0 KHz
Bit depth : 16 bits
Compression mode : Lossy
Stream size : 538 MiB (11%)
Title : Original
Language : English
Default : No
Forced : No

Menu
00:00:00.000 : en:00:00:00.000
00:05:09.017 : en:00:05:09.017
00:12:36.255 : en:00:12:36.255
00:22:25.553 : en:00:22:25.553
00:28:09.897 : en:00:28:09.897
00:33:33.929 : en:00:33:33.929
00:41:18.434 : en:00:41:18.434
00:48:15.518 : en:00:48:15.518
00:55:49.513 : en:00:55:49.513
01:02:17.233 : en:01:02:17.233
01:09:20.365 : en:01:09:20.365
01:17:49.456 : en:01:17:49.456
01:24:34.236 : en:01:24:34.236
01:33:57.298 : en:01:33:57.298
01:41:19.240 : en:01:41:19.240
01:48:30.129 : en:01:48:30.129

Информация о торренте:
Размер содержимого: 4.8 GB
Скачан: 203 раза
Статус: Проверен
Зарегистрирован на трекере: 2018-06-14 15:45
Скачать торрент


Поддержи раздачу — поставь лайк:

Undertaker99
2018-06-14 15:46
Приятного просмотра!
Мои раздачи

Писать комментарии на нашем торрент-трекере могут только зарегистрированные пользователи.
Зарегистрируйтесь или авторизируйтесь на сайте.