»
»

Скачать мультфильм Подозрительная сова (4 сезон 1-20 серии из 20) (Георгий Молодцов) / [2018, мультфильм, комедия, детектив, HDTVRip 720p] - торрент

Скачать бесплатный торрент мультфильм. Мультфильм доступен на нашем торрент-трекере бесплатно, без регистрации и смс.

Статистика раздачи
3 [ 0 b/s ] ↑ 9.8 GB ↓ 0 [ 0 b/s ]
Автор Сообщение
V+I+K+T+O+R
2018-04-14 16:45
Подозрительная сова (4 сезон 1-20 серии из 20)
Подозрительная сова  Перевод: Не требуется
Субтитры: отсутствуют
Формат: HDTVRip, MKV, H.264, AC3
Страна: Россия
Режиссер: Георгий Молодцов
Жанр: мультфильм, комедия, детектив
Продолжительность: 20 x ~ 00:15:00
Год выпуска: 2018

В ролях: Александр Шахов

Описание: Иногда сова — это не просто сова. Иногда это американский коп, готовый положить голову, клюв и крылья на борьбу за справедливость. Подозрительная Сова и ее команда вынесут преступность, мозг и мусор из вашей кухни. Новое бескомпромиссное шоу от создателей Тупого Кита. Нездоровый юмор, концентрированная жизненность и полное погружение в мир совьей подозрительности.



Видео: 1280x720p (16:9), 25,000 fps, MPEG4 AVC (x264), High@L4.1 ~4500 Kbps avg, 0.195 bit/pixel
Аудио: 48 kHz, AC3, 2 ch ~ 192 Kbps

MediaInfo

Общее
Уникальный идентификатор : 219114965936014190859347714671561013636 (0xA4D801E6031802E997BBDF2AFEE1F984)
Полное имя : F:\TREKER\ТЕМР\suspicious_owl_s04_[tfile.ru]\suspicious_owl_s04_e01_[tfile.ru].mkv
Формат : Matroska
Версия формата : Version 2
Размер файла : 492 Мбайт
Продолжительность : 15 м. 0 с.
Общий поток : 4583 Кбит/сек
Дата кодирования : UTC 2018-04-14 12:10:30
Программа кодирования : mkvmerge v4.0.0 ('The Stars were mine') сборка от Jun 6 2010 16:18:42
Библиотека кодирования : libebml v1.0.0 + libmatroska v1.0.0
Обложка : Yes
Attachments : cover.jpg

Видео
Идентификатор : 1
Формат : AVC
Формат/Информация : Advanced Video Codec
Профиль формата : High@L4.1
Параметр CABAC формата : Да
Параметр ReFrames формата : 6 кадров
Идентификатор кодека : V_MPEG4/ISO/AVC
Продолжительность : 15 м. 0 с.
Битрейт : 4500 Кбит/сек
Ширина : 1280 пикселей
Высота : 720 пикселей
Соотношение сторон : 16:9
Режим частоты кадров : Постоянный
Частота кадров : 25,000 кадров/сек
Цветовое пространство : YUV
Субдискретизация насыщенности : 4:2:0
Битовая глубина : 8 бит
Тип развёртки : Прогрессивная
Бит/(Пиксели*Кадры) : 0.195
Размер потока : 461 Мбайт (94%)
Библиотека кодирования : x264 core 146 r2538 121396c
Настройки программы : cabac=1 / ref=6 / deblock=1:-1:-1 / analyse=0x3:0x133 / me=umh / subme=10 / psy=1 / psy_rd=1.00:0.15 / mixed_ref=1 / me_range=24 / chroma_me=1 / trellis=2 / 8x8dct=1 / cqm=0 / deadzone=21,11 / fast_pskip=0 / chroma_qp_offset=-3 / threads=12 / lookahead_threads=1 / sliced_threads=0 / nr=0 / decimate=1 / interlaced=0 / bluray_compat=0 / constrained_intra=0 / bframes=3 / b_pyramid=2 / b_adapt=2 / b_bias=0 / direct=1 / weightb=1 / open_gop=0 / weightp=2 / keyint=250 / keyint_min=25 / scenecut=40 / intra_refresh=0 / rc_lookahead=50 / rc=abr / mbtree=1 / bitrate=4500 / ratetol=1.0 / qcomp=0.69 / qpmin=0 / qpmax=69 / qpstep=4 / ip_ratio=1.40 / aq=1:1.00
Default : Нет
Forced : Нет

Аудио
Идентификатор : 2
Формат : AC-3
Формат/Информация : Audio Coding 3
Расширение режима : CM (complete main)
Параметр Endianness формата : Big
Идентификатор кодека : A_AC3
Продолжительность : 15 м. 0 с.
Вид битрейта : Постоянный
Битрейт : 192 Кбит/сек
Каналы : 2 канала
Расположение каналов : Front: L R
Частота : 48,0 КГц
Частота кадров : 31,250 кадров/сек (1536 spf)
Битовая глубина : 16 бит
Метод сжатия : С потерями
Размер потока : 20,6 Мбайт (4%)
Default : Нет
Forced : Нет



Релиз от:

Релиз предоставлен сайтом tfile.me!!

возрастное ограничение «16+»
Информация о торренте:
Размер содержимого: 9.8 GB
Скачан: 194 раза
Статус: Обновляемая раздача
Зарегистрирован на трекере: 2018-07-26 16:46
Скачать торрент


Поддержи раздачу — поставь лайк:
E-mail:
* Это обновляемая раздача и мы можем вас информировать об обновлении торрента в ней.

marinabakleneva
2018-07-10 17:59
V+I+K+T+O+RБольшое спасибо!!!!!!! за интересные релизы и за хорошее качество. :nice: :nice: :nice: :nice: :nice: :nice: Можешь выложить Ангел-хранитель(2006 - 2007/) Буду сильно тебе признателен :oops: :oops: :oops: :oops: :oops: :oops: :oops:
V+I+K+T+O+R
2018-07-17 17:44
marinabakleneva написал(а):
marinabakleneva

Ангел-хранитель .
что это ?
Писать комментарии на нашем торрент-трекере могут только зарегистрированные пользователи.
Зарегистрируйтесь или авторизируйтесь на сайте.