»
»

Скачать мультфильм Стражи Галактики: Побег, 3 сезон 1-13 серии из 25 / Marvel's Guardians of the Galaxy: Origins (Лео Райли) [2018, мультфильм, фантастика, боевик, приключения, WEBRip 1080p] MVO - торрент

Скачать мультфильм через торрент бесплатно. Мультфильм доступен на нашем торрент-трекере бесплатно, без регистрации и смс.

Статистика раздачи
4 [ 483.0 KB/s ] ↑ 15.7 GB ↓ 0 [ 0 b/s ]
Автор Сообщение
IdeaFilm
2018-03-20 20:27
Стражи Галактики: Побег / Marvel's Guardians of the Galaxy: Origins
Стражи Галактики: Побег, 3 сезон 1-13 серии из 25 / Marvel's Guardians of the Galaxy: Origins Перевод: Профессиональный (многоголосый, закадровый) IdeaFilm
Субтитры: отсутствуют
Формат: WEBRip, MKV, H.264, AC3
Страна: США
Режиссер: Лео Райли
Жанр: мультфильм, фантастика, боевик, приключения
Всего серий: 25
Продолжительность: 13х ~00:25:00
Год выпуска: 2018

В ролях: Джонатан Адамс, Джефф Беннетт, Тревор Дивэлл, Уилл Фридел, Ванесса Маршалл, Джеймс С. Мэтис III, Ной Нельсон, Кевин Майкл Ричардсон, Дэвид Соболев, Кри Саммер

Описание: Прежде чем стать Стражами, каждому из них пришлось преодолеть не мало трудностей на своём пути.
Эти мини-серии рассказывают о каждом из пяти Стражей Галактики..




Видео: 1920x1080 (16/9), 23,976 fps, AVC (х264), Main@L4.1, ~6840 kbps avg, 0.138 bit/pixel
Аудио #1 Rus: :48 kHz, AC3 Dolby Digital, 3/2 (L,C,R,l,r) + LFE ch, ~384 kbps
Аудио #1 Eng: :48 kHz, AC3 Dolby Digital, 3/2 (L,C,R,l,r) + LFE ch, ~384 kbps

Внимание, присутствует реклама!

Внимание! Раздача ведётся путём добавления новых серий

Внимание! Раздача ведётся путём добавления новых серий; при каждом добавлении создаётся новый торрент. Чтобы начать докачку новой серии, пользователям необходимо сделать следующее:
(1) остановить скачивание,
(2) удалить старый торрент у себя из клиента (старые серии удалять не надо),
(3) скачать новый торрент и запустить его у себя в клиенте вместо старого, при этом указать клиенту путь в старую папку куда и должно происходить скачивание новых серий.

Ваш клиент при этом должен произвести хеширование (проверку) старой папки (если не производит сам - помогите ему сделать это), и будет докачивать только те серии которых у вас ещё нет. Старые серии при этом не удаляются, а продолжают раздаваться!

Eсли вы уже удалили старые серии, то предотвратить повторную закачку старых серий можно, отжав галочку в соответствующих местах при запуске нового торрента. По возможности, желательно не удалять старые серии как можно дольше, чтобы релизёр не столько продолжал раздавать старые серии, а смог сконцентрироваться на новых.
MediaInfo

Общее
Уникальный идентификатор : 250673583485074744435699610531617282941 (0xBC95F9DFBA7EA62480EAA9DCA4179B7D)
Полное имя : D:\IDEAFILM\Guardians.of.the.Galaxy.S03.WEBRip.1080p\Guardians.of.the.Galaxy.S03E01.WEBRip.1080p-IdeaFilm.mkv
Формат : Matroska
Версия формата : Version 4 / Version 2
Размер файла : 1,21 Гбайт
Продолжительность : 22 м. 43 с.
Общий поток : 7599 Кбит/сек
Дата кодирования : UTC 2018-03-20 15:26:20
Программа кодирования : mkvmerge v12.0.0 ('Trust / Lust') 64bit
Библиотека кодирования : libebml v1.3.4 + libmatroska v1.4.5

Видео
Идентификатор : 1
Формат : AVC
Формат/Информация : Advanced Video Codec
Профиль формата : Main@L4.1
Настройки формата : CABAC / 3 Ref Frames
Параметр CABAC формата : Да
Параметр RefFrames формата : 3 кадра
Идентификатор кодека : V_MPEG4/ISO/AVC
Продолжительность : 22 м. 43 с.
Битрейт : 6840 Кбит/сек
Ширина : 1920 пикселей
Высота : 1080 пикселей
Соотношение сторон : 16:9
Режим частоты кадров : Постоянный
Частота кадров : 23,976 (24000/1001) кадра/сек
Стандарт вещания : NTSC
Цветовое пространство : YUV
Субдискретизация насыщенности : 4:2:0
Битовая глубина : 8 бит
Тип развёртки : Прогрессивная
Бит/(Пиксели*Кадры) : 0.138
Размер потока : 1,09 Гбайт (90%)
Язык : English
Default : Да
Forced : Нет
Цветовой диапазон : Limited
Основные цвета : BT.709
Характеристики трансфера : BT.709
Коэффициенты матрицы : BT.709

Аудио #1
Идентификатор : 2
Формат : AC-3
Формат/Информация : Audio Coding 3
Идентификатор кодека : A_AC3
Продолжительность : 22 м. 43 с.
Вид битрейта : Постоянный
Битрейт : 384 Кбит/сек
Каналы : 6 каналов
Расположение каналов : Front: L C R, Side: L R, LFE
Частота : 48,0 КГц
Частота кадров : 31,250 кадров/сек (1536 SPF)
Битовая глубина : 16 бит
Метод сжатия : С потерями
Размер потока : 62,4 Мбайт (5%)
Заголовок : IdeaFilm
Язык : Russian
ServiceKind/String : Complete Main
Default : Да
Forced : Нет

Аудио #2
Идентификатор : 3
Формат : AC-3
Формат/Информация : Audio Coding 3
Идентификатор кодека : A_AC3
Продолжительность : 22 м. 3 с.
Битрейт : 384 Кбит/сек
Каналы : 6 каналов
Частота : 48,0 КГц
Частота кадров : 31,250 кадров/сек (1536 SPF)
Метод сжатия : С потерями
Размер потока : 60,6 Мбайт (5%)
Язык : English
Default : Нет
Forced : Нет

Информация о торренте:
Размер содержимого: 15.7 GB
Скачан: 904 раза
Статус: Обновляемая раздача
Зарегистрирован на трекере: 2018-06-04 22:58
Скачать торрент


Поддержи раздачу — поставь лайк:
E-mail:
* Это обновляемая раздача и мы можем вас информировать об обновлении торрента в ней.

Писать комментарии на нашем торрент-трекере могут только зарегистрированные пользователи.
Зарегистрируйтесь или авторизируйтесь на сайте.