»
»

Скачать мультфильм Космо-Рубеж, 1 сезон 1-10 серии из 10 / Final Space (Олэн Роджерс) [2018, Приключения, фантастика, мультфильм, WEB-DL 720p] DVO +Original - торрент

Торрент можно скачать, нажав синюю кнопку ниже. Мультфильм доступен на нашем торрент-трекере бесплатно, без регистрации и смс.

Статистика раздачи
7 [ 0 b/s ] ↑ 9.0 GB ↓ 0 [ 0 b/s ]
Автор Сообщение
NewSation
2018-02-20 21:48
Космо-Рубеж / Final Space
Космо-Рубеж, 1 сезон 1-10 серии из 10 / Final Space Перевод: Любительский (двухголосый), [NewStation]

Субтитры: Английские, русские

Формат: WEB-DL 720p, MKV, H.264, AC3
Страна: США
Режиссер: Олэн Роджерс, Джейк Сидвелл
Жанр: Приключения, фантастика, мультфильм

Продолжительность: 10 x ~00:22:00
Год выпуска: 2018
В ролях: Митчелл Дэвис, Коути Гэлловэй, Олэн Роджерс, Джейк Сидвелл

Описание: Астронавт по имени Гэри и его уничтожающий планеты приятель, называемый себя Мункейк, приступают к путешествиям по космосу, чтобы разгадать тайну того, где вселенная заканчивается и действительно ли она существует.

Видео: 1280x720 (16:9), 24 fps, AVC (х264) High@L4.1 ~ 7675 kbps, 0.347 bit/pixel
Аудио #1: Русский: 48 kHz, AC3 Dolby Digital, 3/2 (L,C,R,l,r) + LFE ch, ~384 kbps
Аудио #1: Английский: 48 kHz, EAC3 Dolby Digital, 3/2 (L,C,R,l,r) + LFE ch, ~640 kbps

Реклама: Отсутствует
Внимание! Раздача ведётся путём добавления новых серий

Внимание! Раздача ведётся путём добавления новых серий; при каждом добавлении создаётся новый торрент. Чтобы начать докачку новой серии, пользователям необходимо сделать следующее:
(1) остановить скачивание,
(2) удалить старый торрент у себя из клиента (старые серии удалять не надо),
(3) скачать новый торрент и запустить его у себя в клиенте вместо старого, при этом указать клиенту путь в старую папку куда и должно происходить скачивание новых серий.

Ваш клиент при этом должен произвести хеширование (проверку) старой папки (если не производит сам - помогите ему сделать это), и будет докачивать только те серии которых у вас ещё нет. Старые серии при этом не удаляются, а продолжают раздаваться!

Eсли вы уже удалили старые серии, то предотвратить повторную закачку старых серий можно, отжав галочку в соответствующих местах при запуске нового торрента. По возможности, желательно не удалять старые серии как можно дольше, чтобы релизёр не столько продолжал раздавать старые серии, а смог сконцентрироваться на новых.

MediaInfo
General
Unique ID : 270671131993896359824377788809626107399 (0xCBA15D233AFC99144450BC91DA21BE07)
Complete name : D:\NewStation\Final.Space.S01.WEB-DL.720p.NewStation\Final.Space.S01E01.WEB-DL.720p.NewStation.mkv
Format : Matroska
Format version : Version 4 / Version 2
File size : 1.30 GiB
Duration : 21 min 18 s
Overall bit rate : 8 702 kb/s
Encoded date : UTC 2018-02-19 09:36:31
Writing application : mkvmerge v19.0.0 ('Brave Captain') 64-bit
Writing library : libebml v1.3.5 + libmatroska v1.4.8

Video
ID : 1
Format : AVC
Format/Info : Advanced Video Codec
Format profile : High@L4.1
Format settings : CABAC / 9 Ref Frames
Format settings, CABAC : Yes
Format settings, RefFrames : 9 frames
Codec ID : V_MPEG4/ISO/AVC
Duration : 21 min 18 s
Bit rate : 7 675 kb/s
Width : 1 280 pixels
Height : 720 pixels
Display aspect ratio : 16:9
Frame rate mode : Constant
Frame rate : 23.976 (24000/1001) FPS
Color space : YUV
Chroma subsampling : 4:2:0
Bit depth : 8 bits
Scan type : Progressive
Bits/(Pixel*Frame) : 0.347
Stream size : 1.14 GiB (88%)
Writing library : x264 core 148 r2744 b97ae06
Encoding settings : cabac=1 / ref=9 / deblock=1:-3:-3 / analyse=0x3:0x133 / me=umh / subme=10 / psy=1 / psy_rd=1.00:0.00 / mixed_ref=1 / me_range=48 / chroma_me=1 / trellis=2 / 8x8dct=1 / cqm=0 / deadzone=21,11 / fast_pskip=1 / chroma_qp_offset=-2 / threads=12 / lookahead_threads=2 / sliced_threads=0 / nr=0 / decimate=0 / interlaced=0 / bluray_compat=0 / constrained_intra=0 / bframes=8 / b_pyramid=2 / b_adapt=2 / b_bias=0 / direct=3 / weightb=1 / open_gop=0 / weightp=2 / keyint=240 / keyint_min=23 / scenecut=40 / intra_refresh=0 / rc=crf / mbtree=0 / crf=17.0 / qcomp=0.60 / qpmin=0 / qpmax=69 / qpstep=4 / ip_ratio=1.40 / pb_ratio=1.30 / aq=3:0.70
Language : English
Default : Yes
Forced : No

Audio #1
ID : 2
Format : AC-3
Format/Info : Audio Coding 3
Codec ID : A_AC3
Duration : 21 min 18 s
Bit rate mode : Constant
Bit rate : 384 kb/s
Channel(s) : 6 channels
Channel positions : Front: L C R, Side: L R, LFE
Sampling rate : 48.0 kHz
Frame rate : 31.250 FPS (1536 SPF)
Bit depth : 16 bits
Compression mode : Lossy
Stream size : 58.5 MiB (4%)
Title : NewStation
Language : Russian
Service kind : Complete Main
Default : Yes
Forced : No

Audio #2
ID : 3
Format : E-AC-3
Format/Info : Enhanced Audio Coding 3
Codec ID : A_EAC3
Duration : 21 min 18 s
Bit rate mode : Constant
Bit rate : 640 kb/s
Channel(s) : 6 channels
Channel positions : Front: L C R, Side: L R, LFE
Sampling rate : 48.0 kHz
Frame rate : 187.500 FPS (256 SPF)
Compression mode : Lossy
Stream size : 97.5 MiB (7%)
Title : Original
Service kind : Complete Main
Default : No
Forced : No

Text
ID : 4
Format : UTF-8
Codec ID : S_TEXT/UTF8
Codec ID/Info : UTF-8 Plain Text
Duration : 21 min 9 s
Bit rate : 84 b/s
Count of elements : 475
Stream size : 13.2 KiB (0%)
Language : English
Default : No
Forced : No



Информация о торренте:
Размер содержимого: 9.0 GB
Скачан: 179 раз
Статус: Обновляемая раздача
Зарегистрирован на трекере: 2018-05-01 21:49
Скачать торрент


Поддержи раздачу — поставь лайк:
E-mail:
* Это обновляемая раздача и мы можем вас информировать об обновлении торрента в ней.

Писать комментарии на нашем торрент-трекере могут только зарегистрированные пользователи.
Зарегистрируйтесь или авторизируйтесь на сайте.