»
»

Скачать мультфильм Жаркие Улочки, 1 сезон 1-11 серии из 11 / Hot Streets [NewStation] (Брайан Уайсол) [2018, комедия, приключения, HDTVRip 720p] DVO - торрент

Нажмите синюю кнопку, чтобы cкачать бесплатно через торрент мультфильм. Мультфильм доступен на нашем торрент-трекере бесплатно, без регистрации и смс.

Статистика раздачи
5 [ 0 b/s ] ↑ 2.2 GB ↓ 0 [ 0 b/s ]
Автор Сообщение
NewSation
2018-02-10 17:03
Жаркие Улочки / Hot Streets
Жаркие Улочки, 1 сезон 1-11 серии из 11 / Hot Streets [NewStation] Перевод: Любительский (двухголосый) NewStation

Субтитры: английские
Формат: HDTVRip 720p, MKV, H.264, AC3
Страна: США
Режиссер: Брайан Уайсол
Жанр: Комедия, приключения
Продолжительность: 11x ~00:10:00
Год выпуска: 2018
В ролях: Скотт Чернофф, Челси Кейн, Дж.Д. Ризнар

Реклама: Отсутствует

Описание: Агент ФБР Марк Брански, его напарник, его племянница и её пёс ведут расследование сверхъестественного феномена.

[imdb=http://www.imdb.com/title/tt7234598/]

Видео: 1280x720 (16:9), 23,976 кадров/сек, AVC H.264, High@L4.1 ~1973 Кбит/сек, 0.089 bits/pixel
Аудио RUS: 48 kHz, AC-3, 2ch, ~256 kbps
Аудио ENG: 48 kHz, AC-3, 6ch, ~448 kbps

Доп. информация: В сериале присутствует ненормативная лексика.



Подробные технические данные
General
Unique ID : 322738069565158141948304179823405377011 (0xF2CD175B4DA12B81094A1760345B25F3)
Complete name : D:\NewStation\Hot Streets\Hot.Streets.S01E02.HDTV.720p.NewStation.mkv
Format : Matroska
Format version : Version 4 / Version 2
File size : 200 MiB
Duration : 10 min 24 s
Overall bit rate : 2 679 kb/s
Encoded date : UTC 2018-02-09 19:02:30
Writing application : mkvmerge v19.0.0 ('Brave Captain') 64-bit
Writing library : libebml v1.3.5 + libmatroska v1.4.8

Video
ID : 1
Format : AVC
Format/Info : Advanced Video Codec
Format profile : High@L4.1
Format settings : CABAC / 9 Ref Frames
Format settings, CABAC : Yes
Format settings, RefFrames : 9 frames
Codec ID : V_MPEG4/ISO/AVC
Duration : 10 min 24 s
Bit rate : 1 973 kb/s
Width : 1 280 pixels
Height : 720 pixels
Display aspect ratio : 16:9
Frame rate mode : Constant
Frame rate : 23.976 (24000/1001) FPS
Color space : YUV
Chroma subsampling : 4:2:0
Bit depth : 8 bits
Scan type : Progressive
Bits/(Pixel*Frame) : 0.089
Stream size : 147 MiB (74%)
Writing library : x264 core 155 r2893 b00bcaf
Encoding settings : cabac=1 / ref=9 / deblock=1:1:1 / analyse=0x3:0x113 / me=hex / subme=8 / psy=1 / psy_rd=0.40:0.00 / mixed_ref=1 / me_range=16 / chroma_me=1 / trellis=2 / 8x8dct=1 / cqm=0 / deadzone=21,11 / fast_pskip=1 / chroma_qp_offset=-2 / threads=12 / lookahead_threads=2 / sliced_threads=0 / nr=0 / decimate=1 / interlaced=0 / bluray_compat=0 / constrained_intra=0 / bframes=5 / b_pyramid=2 / b_adapt=1 / b_bias=0 / direct=3 / weightb=1 / open_gop=0 / weightp=2 / keyint=250 / keyint_min=23 / scenecut=40 / intra_refresh=0 / rc_lookahead=50 / rc=crf / mbtree=1 / crf=18.0 / qcomp=0.60 / qpmin=0 / qpmax=69 / qpstep=4 / ip_ratio=1.40 / aq=1:0.60
Default : Yes
Forced : No

Audio #1
ID : 2
Format : AC-3
Format/Info : Audio Coding 3
Codec ID : A_AC3
Duration : 10 min 24 s
Bit rate mode : Constant
Bit rate : 256 kb/s
Channel(s) : 2 channels
Channel positions : Front: L R
Sampling rate : 48.0 kHz
Frame rate : 31.250 FPS (1536 SPF)
Bit depth : 16 bits
Compression mode : Lossy
Stream size : 19.1 MiB (10%)
Title : NewStation
Language : Russian
Service kind : Complete Main
Default : Yes
Forced : No

Audio #2
ID : 3
Format : AC-3
Format/Info : Audio Coding 3
Codec ID : A_AC3
Duration : 10 min 24 s
Bit rate mode : Constant
Bit rate : 448 kb/s
Channel(s) : 6 channels
Channel positions : Front: L C R, Side: L R, LFE
Sampling rate : 48.0 kHz
Frame rate : 31.250 FPS (1536 SPF)
Bit depth : 16 bits
Compression mode : Lossy
Stream size : 33.4 MiB (17%)
Title : Original
Service kind : Complete Main
Default : No
Forced : No

Text
ID : 4
Format : UTF-8
Codec ID : S_TEXT/UTF8
Codec ID/Info : UTF-8 Plain Text
Duration : 10 min 20 s
Bit rate : 126 b/s
Count of elements : 253
Stream size : 9.61 KiB (0%)
Language : English
Default : No
Forced : No


Внимание! Раздача ведётся путём добавления новых серий

Внимание! Раздача ведётся путём добавления новых серий; при каждом добавлении создаётся новый торрент. Чтобы начать докачку новой серии, пользователям необходимо сделать следующее:
(1) остановить скачивание,
(2) удалить старый торрент у себя из клиента (старые серии удалять не надо),
(3) скачать новый торрент и запустить его у себя в клиенте вместо старого, при этом указать клиенту путь в старую папку куда и должно происходить скачивание новых серий.

Ваш клиент при этом должен произвести хеширование (проверку) старой папки (если не производит сам - помогите ему сделать это), и будет докачивать только те серии которых у вас ещё нет. Старые серии при этом не удаляются, а продолжают раздаваться!

Eсли вы уже удалили старые серии, то предотвратить повторную закачку старых серий можно, отжав галочку в соответствующих местах при запуске нового торрента. По возможности, желательно не удалять старые серии как можно дольше, чтобы релизёр не столько продолжал раздавать старые серии, а смог сконцентрироваться на новых.



Информация о торренте:
Размер содержимого: 2.2 GB
Скачан: 51 раз
Статус: Проверен
Зарегистрирован на трекере: 2018-08-25 13:13
Скачать торрент


Поддержи раздачу — поставь лайк:
power-gold
2018-02-12 22:15
Подправил ошибки. Будьте внимательней.
NewSation
2018-03-04 22:25
Добавлена 4-я серия.
да в пень
2018-07-27 01:19
Продолжительность: 6x ~00:10:00 а в торренте файлов семь. что это за нулевая серия. может она 7ая?
NewSation
2018-07-27 15:26
да в пень написал(а):
Продолжительность: 6x ~00:10:00 а в торренте файлов семь. что это за нулевая серия. может она 7ая?


нулевая это пилотный выпуск
да в пень
2018-07-27 21:49
NewSation написал(а):
да в пень написал(а):
Продолжительность: 6x ~00:10:00 а в торренте файлов семь. что это за нулевая серия. может она 7ая?


нулевая это пилотный выпуск
теперь понятнее спасибо
Писать комментарии на нашем торрент-трекере могут только зарегистрированные пользователи.
Зарегистрируйтесь или авторизируйтесь на сайте.