»
»

Скачать фильм Атлантика: Самый необузданный океан на Земле (1 сезон: 1-3 серии из 3) / Atlantic: The Wildest Ocean on Earth [2015, документальный, научно-популярный, BDRip 720p] DVO - торрент

Бесплатные торренты всегда на нашем сайте и в хорошем качестве! Фильм доступен на нашем торрент-трекере бесплатно, без регистрации и смс.

Статистика раздачи
85 [ 10.0 KB/s ] ↑ 12.9 GB ↓ 0 [ 0 b/s ]
Автор Сообщение
ARI71
2015-09-25 10:20
Атлантика: Самый необузданный океан на Земле (1 сезон: 1-3 серии из 3) / Atlantic: The Wildest Ocean on Earth
Атлантика: Самый необузданный океан на Земле Перевод: Профессиональный (двухголосый, закадровый) [AlexFilm]
Субтитры: отсутствуют
Формат: BDRip 720p, MKV, H.264, AC3/AC3
Страна: Великобритания, BBC Natural History, National Geographic Television
Режиссер: Эндрю Мюррэй, Дэн Риис
Жанр: документальный, научно-популярный
Продолжительность: 3 x ~ 00:58:00
Год выпуска: 2015

Текст читают: Владимир Курдов, Татьяна Манетина

Описание: Из-за мощных течений, жестоких ураганов и подводных вулканов Атлантический океан невероятно богат и разнообразен, но выжить, приняв его вызов, в нём очень не просто. Новый документальный фильм BBC рассказывает о самом необузданном из всех океанов планеты Земля.



Видео: 1280x720 (16:9), 25.000 fps, AVC (x264), High@L4.1, ~9982 Кбит/сек, 0.433 bit/pixel
Аудио #1: Russian: 48,0 kHz, AC3, 2 ch, 192 Кбит/с
Аудио #2: English: 48,0 kHz, AC3, 2 ch, 192 Кбит/с (Оригинал)

MediaInfo
Общее
Уникальный идентификатор : 185520048300658352311199573378800993952 (0x8B91DC93D35DDB58A6466834668AC6A0)
Полное имя : D:\Атлантика Самый необузданный океан на Земле (2015) BDRip 720p - AlexFilm\Atlantic.The.Wildest.Ocean.on.Earth.e01.BDRip.720p.Rus.Eng.AlexFilm.mkv
Формат : Matroska
Версия формата : Version 4 / Version 2
Размер файла : 4,39 Гбайт
Продолжительность : 59 м.
Общий поток : 10,6 Мбит/сек
Название фильма : Atlantic: The Wildest Ocean on Earth 1x01 @ AlexFilm
Дата кодирования : UTC 2016-01-26 19:48:29
Программа кодирования : mkvmerge v7.1.0 ('Good Love') 64bit built on Jul 27 2014 13:06:55
Библиотека кодирования : libebml v1.3.0 + libmatroska v1.4.1

Видео
Идентификатор : 1
Формат : AVC
Формат/Информация : Advanced Video Codec
Профиль формата : High@L4.1
Параметр CABAC формата : Да
Параметр ReFrames формата : 9 кадров
Идентификатор кодека : V_MPEG4/ISO/AVC
Продолжительность : 59 м.
Битрейт : 9982 Кбит/сек
Ширина : 1280 пикселей
Высота : 720 пикселей
Соотношение сторон : 16:9
Режим частоты кадров : Постоянный
Частота кадров : 25,000 кадров/сек
Цветовое пространство : YUV
Субдискретизация насыщенности : 4:2:0
Битовая глубина : 8 бит
Тип развёртки : Прогрессивная
Бит/(Пиксели*Кадры) : 0.433
Размер потока : 4,14 Гбайт (94%)
Библиотека кодирования : x264 core 148 r2638 w_mod_Custom 7599210 [8-bit@all X86_64]
Настройки программы : cabac=1 / ref=9 / deblock=1:-3:-3 / analyse=0x3:0x133 / me=umh / subme=11 / psy=1 / fade_compensate=0.00 / psy_rd=1.00:0.00 / mixed_ref=1 / me_range=48 / chroma_me=1 / trellis=2 / 8x8dct=1 / cqm=0 / deadzone=21,11 / fast_pskip=0 / chroma_qp_offset=-2 / threads=12 / lookahead_threads=3 / sliced_threads=0 / nr=0 / decimate=0 / interlaced=0 / bluray_compat=0 / constrained_intra=0 / fgo=0 / bframes=10 / b_pyramid=2 / b_adapt=2 / b_bias=0 / direct=3 / weightb=1 / open_gop=0 / weightp=2 / keyint=250 / keyint_min=25 / scenecut=40 / intra_refresh=0 / rc_lookahead=150 / rc=crf / mbtree=0 / crf=17.0000 / qcomp=0.80 / qpmin=0:0:0 / qpmax=69:69:69 / qpstep=4 / vbv_maxrate=62500 / vbv_bufsize=78125 / crf_max=0.0 / nal_hrd=none / filler=0 / ip_ratio=1.30 / pb_ratio=1.20 / aq=3:0.80 / aq-sensitivity=10.00 / aq-factor=1.00:1.00:1.00 / aq2=0 / aq3=0
Язык : English
Default : Да
Forced : Нет
Цветовой диапазон : Limited
Коэффициенты матрицы : BT.709

Аудио #1
Идентификатор : 2
Формат : AC-3
Формат/Информация : Audio Coding 3
Расширение режима : CM (complete main)
Параметр Endianness формата : Big
Идентификатор кодека : A_AC3
Продолжительность : 59 м.
Вид битрейта : Постоянный
Битрейт : 192 Кбит/сек
Каналы : 2 канала
Расположение каналов : Front: L R
Частота : 48,0 КГц
Частота кадров : 31,250 кадров/сек (1536 spf)
Метод сжатия : С потерями
Размер потока : 81,6 Мбайт (2%)
Заголовок : DD2.0 AlexFilm
Язык : Russian
Default : Да
Forced : Нет

Аудио #2
Идентификатор : 3
Формат : AC-3
Формат/Информация : Audio Coding 3
Расширение режима : CM (complete main)
Параметр Endianness формата : Big
Идентификатор кодека : A_AC3
Продолжительность : 59 м.
Вид битрейта : Постоянный
Битрейт : 192 Кбит/сек
Каналы : 2 канала
Расположение каналов : Front: L R
Частота : 48,0 КГц
Частота кадров : 31,250 кадров/сек (1536 spf)
Метод сжатия : С потерями
Размер потока : 81,6 Мбайт (2%)
Заголовок : DD2.0 Original
Язык : English
Default : Нет
Forced : Нет [/field]

Информация о торренте:
Размер содержимого: 12.9 GB
Скачан: 716 раз
Статус: Проверен
Зарегистрирован на трекере: 2017-03-26 22:00
Скачать торрент


Поддержи раздачу — поставь лайк:
serg57
2015-09-30 15:15
Замечательно.Продолжение когда?Ждем.
lounge_444
2016-03-21 22:09
Отличнейшие съёмки!Ждём продолжения!
ARI71
2018-06-14 17:49
Раздачу хранит и сидирует - ARI71
(Раздача обновлена - 14.06.2018)
Писать комментарии на нашем торрент-трекере могут только зарегистрированные пользователи.
Зарегистрируйтесь или авторизируйтесь на сайте.