»
»

Скачать фильм Частное лицо (3 серии из 3) (Александр Прошкин) / [1980, детектив, SATRip-AVC] - торрент

Скачать торрент фильм можно, нажав на синюю кнопку ниже. Фильм доступен на нашем торрент-трекере бесплатно, без регистрации и смс.

Статистика раздачи
47 [ 0 b/s ] ↑ 4.1 GB ↓ 0 [ 0 b/s ]
Автор Сообщение
Astarot999
2014-08-06 13:04
Частное лицо (3 серии из 3)
Частное лицо Формат: SATRip-AVC, MKV, H.264, AC3
Режиссер: Александр Прошкин
Жанр: детектив
Продолжительность: 3 х ~ 01:10:00
Год выпуска: 1980
В ролях: Анатолий Кузнецов, Татьяна Ташкова, Галина Польских, Георгий Дрозд, Леонхард Мерзин, Николай Денисов, Вячеслав Добрынин, Владимир Приходько, Николай Колчицкий, Александр Пятков
Описание:
Полковник МВД Лукьянов приезжает с женой в курортный городок к своему другу, сотруднику местной милиции. Этой же ночью друга сбивает машина. Полковнику необходимо выяснить, было ли это преднамеренное убийство или несчастный случай.



Видео: 704x564@750x564 (4:3), 25 fps, AVC (х.264) High@L4.1 ~2626 kbps avg, 0.265 bit/pixel
Аудио: 48 kHz, АС3, 2 ch, Front: L R ~192.00 kbps avg
Тех. данные файлов идентичны.

MI
Общее
Уникальный идентификатор : 233164392960123782630207039803202122797 (0xAF69D42188860B5190EDBF62FC12B42D)
Полное имя : H:\МОИ РИПЫ\Частное лицо_1980-SATRip-AVC\Частное лицо-1.mkv
Формат : Matroska
Версия формата : Version 2
Размер файла : 1,29 Гбайт
Продолжительность : 1 ч. 5 м.
Общий поток : 2820 Кбит/сек
Дата кодирования : UTC 2014-08-05 16:17:31
Программа кодирования : mkvmerge v5.2.0 ('I can't explain') built on Dec 18 2011 18:12:03
Библиотека кодирования : libebml v1.2.3 + libmatroska v1.3.0

Видео
Идентификатор : 1
Формат : AVC
Формат/Информация : Advanced Video Codec
Профиль формата : High@L4.1
Параметр CABAC формата : Да
Параметр ReFrames формата : 16 кадров
Идентификатор кодека : V_MPEG4/ISO/AVC
Продолжительность : 1 ч. 5 м.
Битрейт : 2626 Кбит/сек
Ширина : 704 пикселя
Высота : 564 пикселя
Соотношение сторон : 4:3
Соотношение сторон в оригинале : 4:3
Режим частоты кадров : Постоянный
Частота кадров : 25,000 кадров/сек
Цветовое пространство : YUV
Субдискретизация насыщенности : 4:2:0
Битовая глубина : 8 бит
Тип развёртки : Прогрессивная
Бит/(Пиксели*Кадры) : 0.265
Размер потока : 1,17 Гбайт (91%)
Библиотека кодирования : x264 core 142 r2431 ac76440
Настройки программы : cabac=1 / ref=16 / deblock=1:-2:-2 / analyse=0x3:0x133 / me=umh / subme=10 / psy=1 / psy_rd=1.07:0.15 / mixed_ref=1 / me_range=24 / chroma_me=1 / trellis=2 / 8x8dct=1 / cqm=0 / deadzone=21,11 / fast_pskip=0 / chroma_qp_offset=-3 / threads=12 / lookahead_threads=2 / sliced_threads=0 / nr=0 / decimate=0 / interlaced=0 / bluray_compat=0 / constrained_intra=0 / bframes=9 / b_pyramid=2 / b_adapt=2 / b_bias=0 / direct=3 / weightb=1 / open_gop=0 / weightp=2 / keyint=250 / keyint_min=25 / scenecut=40 / intra_refresh=0 / rc=2pass / mbtree=0 / bitrate=2626 / ratetol=1.0 / qcomp=0.65 / qpmin=0 / qpmax=39 / qpstep=4 / cplxblur=20.0 / qblur=0.5 / ip_ratio=1.40 / pb_ratio=1.30 / aq=1:1.00
Язык : English
Default : Да
Forced : Нет
Основные цвета : BT.601 PAL
Характеристики трансфера : BT.470 System B, BT.470 System G
Коэффициенты матрицы : BT.601

Аудио
Идентификатор : 2
Формат : AC-3
Формат/Информация : Audio Coding 3
Расширение режима : CM (complete main)
Параметр Endianness формата : Big
Идентификатор кодека : A_AC3
Продолжительность : 1 ч. 5 м.
Вид битрейта : Постоянный
Битрейт : 192 Кбит/сек
Каналы : 2 канала
Расположение каналов : Front: L R
Частота : 48,0 КГц
Битовая глубина : 16 бит
Метод сжатия : С потерями
Задержка видео : 200 мс.
Размер потока : 89,6 Мбайт (7%)
Язык : Russian
Default : Да
Forced : Нет

Информация о торренте:
Размер содержимого: 4.1 GB
Скачан: 1587 раз
Статус: Проверен
Зарегистрирован на трекере: 2014-08-06 13:04
Скачать торрент


Поддержи раздачу — поставь лайк:
Писать комментарии на нашем торрент-трекере могут только зарегистрированные пользователи.
Зарегистрируйтесь или авторизируйтесь на сайте.