»
»

Скачать фильм Вишневая бомба / Cherrybomb (Лиза Баррос Д’Са, Глен Лейберн) [2009, драма, BDRip 720p] MVO - торрент

Скачать бесплатный торрент фильм. Фильм доступен на нашем торрент-трекере бесплатно, без регистрации и смс.

Download denied
Sorry, but you can't download this torrent due to copyright restrictions.
Автор Сообщение
_andreyko_
2012-12-28 19:33
Вишневая бомба / CherrybombВишневая бомба / Cherrybomb
Перевод: Любительский (многоголосый, закадровый)
Cубтитры: отсутствуют
Формат: BDRip, MKV, H.264, AC3/DTS
Страна: Великобритания
Режиссер: Лиза Баррос Д’Са, Глен Лейберн
Жанр: драма
Продолжительность: 01:25:58
Год выпуска: 2009

В ролях: Руперт Гринт, Роберт Шиэн, Кимберли Никсон, Джеймс Несбитт, Найэм Куинн, Пол Кеннеди, Конор МакНил, Грир Эллисон, Кэт Кирк, Кэти Кира Кларк

Описание: Серьезным испытанием для дружбы Люка и Малаки становится Мишель, красавица, только что прибывшая в их город. Оба влюбляются, и тогда Мишель предлагает молодым людям конкурировать за нее — в обмен на внимание Мишель они должны выполнять различные задания.
С каждым разом задания становятся все опаснее и сложней. Былая дружба давно забыта, как же далеко зайдет эта игра?


Рейтинг на IMDb: 6.0/10
Рейтинг на КиноПоиск.Ru: 6.569

Видео: 1280x544p (2.35:1), 23.976 fps, AVC MPEG-4 (x264), High@L4.1, ~5759 kbps, 0.345 bits/(pixel*frame)
Аудио#1: Русский: 48 kHz, AC3, 6 ch, 448 kbps (Любительский (многоголосый, закадровый))
Аудио#2: Английский: 48 kHz, DTS, 6 ch, 1509 kbps (Оригинал)

Доп. информация: Эксклюзивный перевод от Gremlin Creative Studio! Присутствует ненормативная лексика!

Релиз состоялся: 28.12.2012.

Семпл: (~ 110MB)

MI
Complete name : X:\Cherrybomb.720p.BDRip.GCS.mkv
Format : Matroska
Format version : Version 2
File size : 4.63 GiB
Duration : 1h 25mn
Overall bit rate : 7 708 Kbps
Encoded date : UTC 2012-12-27 21:18:09
Writing application : mkvmerge v4.4.0 ('Die Wiederkehr') сборка от Oct 31 2010 21:52:48
Writing library : libebml v1.0.0 + libmatroska v1.0.0

Video
ID : 1
Format : AVC
Format/Info : Advanced Video Codec
Format profile : High@L4.1
Format settings, CABAC : Yes
Format settings, ReFrames : 5 frames
Muxing mode : Header stripping
Codec ID : V_MPEG4/ISO/AVC
Duration : 1h 25mn
Bit rate : 5 759 Kbps
Width : 1 280 pixels
Height : 544 pixels
Display aspect ratio : 2.35:1
Frame rate mode : Constant
Frame rate : 23.976 fps
Color space : YUV
Chroma subsampling : 4:2:0
Bit depth : 8 bits
Scan type : Progressive
Bits/(Pixel*Frame) : 0.345
Stream size : 3.36 GiB (73%)
Writing library : x264 core 104 r1674 d846e88
Encoding settings : cabac=1 / ref=5 / deblock=1:0:0 / analyse=0x3:0x113 / me=umh / subme=7 / psy=1 / psy_rd=1.00:0.15 / mixed_ref=1 / me_range=16 / chroma_me=1 / trellis=1 / 8x8dct=1 / cqm=0 / deadzone=21,11 / fast_pskip=0 / chroma_qp_offset=-3 / threads=12 / sliced_threads=0 / nr=0 / decimate=1 / interlaced=0 / constrained_intra=0 / bframes=3 / b_pyramid=2 / b_adapt=1 / b_bias=0 / direct=1 / weightb=1 / open_gop=0 / weightp=2 / keyint=250 / keyint_min=23 / scenecut=40 / intra_refresh=0 / rc_lookahead=40 / rc=2pass / mbtree=1 / bitrate=5759 / ratetol=1.0 / qcomp=0.60 / qpmin=10 / qpmax=51 / qpstep=4 / cplxblur=20.0 / qblur=0.5 / ip_ratio=1.40 / aq=1:1.00
Default : Yes
Forced : No

Audio #1
ID : 2
Format : AC-3
Format/Info : Audio Coding 3
Mode extension : CM (complete main)
Format settings, Endianness : Big
Muxing mode : Header stripping
Codec ID : A_AC3
Duration : 1h 25mn
Bit rate mode : Constant
Bit rate : 448 Kbps
Channel(s) : 6 channels
Channel positions : Front: L C R, Side: L R, LFE
Sampling rate : 48.0 KHz
Bit depth : 16 bits
Compression mode : Lossy
Stream size : 276 MiB (6%)
Title : GCS.AC3.6ch.448kbps
Language : Russian
Default : Yes
Forced : No

Audio #2
ID : 3
Format : DTS
Format/Info : Digital Theater Systems
Mode : 16
Format settings, Endianness : Big
Muxing mode : Header stripping
Codec ID : A_DTS
Duration : 1h 25mn
Bit rate mode : Constant
Bit rate : 1 509 Kbps
Channel(s) : 6 channels
Channel positions : Front: L C R, Side: L R, LFE
Sampling rate : 48.0 KHz
Bit depth : 24 bits
Compression mode : Lossy
Delay relative to video : 11ms
Stream size : 928 MiB (20%)
Title : Original.DTS.6ch.1509kbps
Language : English
Default : No
Forced : No

Menu
00:00:00.000 : en:00:00:00.000
00:04:46.786 : en:00:04:46.786
00:10:53.528 : en:00:10:53.528
00:15:48.698 : en:00:15:48.698
00:20:51.625 : en:00:20:51.625
00:26:37.429 : en:00:26:37.429
00:31:51.576 : en:00:31:51.576
00:36:22.555 : en:00:36:22.555
00:42:08.568 : en:00:42:08.568
00:47:23.466 : en:00:47:23.466
00:51:09.316 : en:00:51:09.316
00:56:17.124 : en:00:56:17.124
01:02:26.159 : en:01:02:26.159
01:07:41.808 : en:01:07:41.808
01:14:33.427 : en:01:14:33.427
01:20:25.237 : en:01:20:25.237


Писать комментарии на нашем торрент-трекере могут только зарегистрированные пользователи.
Зарегистрируйтесь или авторизируйтесь на сайте.