»
»

Скачать аниме Танцы Мику 3Д / Miku Miku Dance 3D [AMV][RAW/хардсаб][2009-2011, WEBRip] - торрент

Торрент можно скачать, нажав синюю кнопку ниже. Аниме доступен на нашем торрент-трекере бесплатно, без регистрации и смс.

Статистика раздачи
2 [ 0 b/s ] ↑ 3.7 GB ↓ 0 [ 0 b/s ]
Автор Сообщение
Znajusvoedelo
2011-05-10 21:41
Танцы Мику 3Д / Miku Miku Dance 3D (Hatsune Miku)
Танцы Мику 3Д / Miku Miku Dance 3D
Перевод: Не требуется
Cубтитры: Oтсутствуют
Формат: WEBRip, MPEG, AVC, AAC
Страна: Япония
Режиссер: Отсутствует
Жанр: музыкальные клипы в стиле JPOP
Продолжительность: 79 клипов от 00:00:30 до 00:06:40
Год выпуска: 2009-2011
Рейтинг на World-art: Отсутствует

Описание: Музыкально - танцевальное шоу для любителей электронной музыки JPOP и Аниме созданое в 3D с помощью программы Miku Miku Dance (MMD).

Хардсаб: японский (где-то есть, где-то нет)
Видео: 1280x720, AVC (MPEG), 30.00 fps, ~3000 kbps (параметры видео варьируются)
Аудио: AAC, 44.1 kHz, 2 ch, ~128 kbps (варьируется битрейт)

Доп. информация: За материал спасибо ю-тьюбу и Oreon'у.


Господа, анимешники! Это фактически первое аниме в 3D-формате! Качаем не раздумывая! :nice:

Как смотреть, или читать в первую очередь!

На компьютере:
1) Запускаем видео через Stereoscopic Player (Файл/Открыть файл...) или любой другой плеер со словом "Stereo";
2) В появившемся окне "Формат входного видео" выбираем "Попеременная пара, Правый ракурс первый" (или Файл/Расположение);
3) Вид/Метод просмотра/формат ваших очков (например, красно-синий анаглиф - Anaglyph/Color Anaglyph Красно - Голубой);
4) Надеваем соответствующие очки и смотрим.
При наличии комплекта 3D-Vision, аналогично запускаем видео через стереоскопик или через Nvidia 3D Player - разницы нет, так как оболочка одна и та же.

На 3D-телевизоре:
1) Берём обыкновенную флэшку и скидываем на неё файл с видео;
2) Втыкаем её в USB-разъём 3D-телевизора;
3) Выбираем видео, в меню настраиваем режим 3D, надеваем очки и смотрим.

Вопрос: Стереоскопик показывает черный экран - что делать?
Ответ: На любые подобные вопросы всегда один простой ответ. Обновить кодеки. Например, установить K-Lite Codec Pack 7.0.0 (Full). Т.е. чем новее, тем лучше.

MediaInfo одного из видео
General
Complete name : D:\Мои фильмы\3D\Miku_Miku_Dance_3D_[tfile.ru]\Part 7\74.mp4
Format : MPEG-4
Format profile : Base Media / Version 2
Codec ID : mp42
File size : 47.3 MiB
Duration : 2mn 8s
Overall bit rate : 3 093 Kbps
Encoded date : UTC 2011-03-11 07:49:37
Tagged date : UTC 2011-03-11 07:49:37
gsst : 0
gstd : 128331
gssd : B4A7DDA25MH1303401526439362
gshh : v5.cache2.c.youtube.com

Video
ID : 1
Format : AVC
Format/Info : Advanced Video Codec
Format profile : High@L3.1
Format settings, CABAC : Yes
Format settings, ReFrames : 1 frame
Format settings, GOP : M=1, N=60
Codec ID : avc1
Codec ID/Info : Advanced Video Coding
Duration : 2mn 8s
Bit rate mode : Variable
Bit rate : 2 960 Kbps
Maximum bit rate : 4 918 Kbps
Width : 1 280 pixels
Height : 720 pixels
Display aspect ratio : 16:9
Frame rate mode : Variable
Frame rate : 30.000 fps
Minimum frame rate : 29.412 fps
Maximum frame rate : 30.303 fps
Color space : YUV
Chroma subsampling : 4:2:0
Bit depth : 8 bits
Scan type : Progressive
Bits/(Pixel*Frame) : 0.107
Stream size : 45.3 MiB (96%)
Tagged date : UTC 2011-03-11 07:49:38

Audio
ID : 2
Format : AAC
Format/Info : Advanced Audio Codec
Format profile : LC
Codec ID : 40
Duration : 2mn 8s
Bit rate mode : Variable
Bit rate : 127 Kbps
Maximum bit rate : 235 Kbps
Channel(s) : 2 channels
Channel positions : Front: L R
Sampling rate : 44.1 KHz
Compression mode : Lossy
Stream size : 1.94 MiB (4%)
Title : (C) 2007 Google Inc. v08.13.2007.
Encoded date : UTC 2011-03-11 07:49:38
Tagged date : UTC 2011-03-11 07:49:38


Информация о торренте:
Размер содержимого: 3.7 GB
Скачан: 11608 раз
Статус: Проверен
Зарегистрирован на трекере: 2011-05-10 21:41
Скачать торрент


Поддержи раздачу — поставь лайк:
Usuke
2011-05-10 23:14
а я хентайщину с мику смотрел :muxaxa:
colder00
2011-05-11 18:54
спасибо, заценим)

P.S. роликов не 79, а 69, так как их нумерация начинается с 11. :ugu:

P.S.S. ролик 18 просто шедевр-)
Как смотреть стереопару без очков и стереомонитора -)

- Сядьте от монитора на расстоянии вытянутой руки.

- Возьмите карандаш, или любой другой предмет схожей формы. Чем тоньше, тем лучше.

- Держите карандаш так, что бы он был посреди расстояния между Вами и монитором, а за его кончиком центр просматриваемого изображения.

- Смотрите на кончик карандаша и ведите его к переносице, при этом следите за картинкой за ним, но не фокусируйте взгляд на ней. За карандашом будет несколько наложенных одна на другую картинок (3 или 4)

- По мере приближения карандаша Вы увидите, как между двумя картинками появится одна мутная. Теперь постарайтесь сфокусировать взгляд не на кончике карандаша, а на мутной картинке за ним.

- Сфокусировав взгляд на картинке опустите карандаш.

Следуя этим пунктам Вы увидите, как между двумя плоскими картинками появилось объемное изображение.

Потренируйтесь на этом изображении(увеличение по клику):



(с) Stereopics

AgRoza
2011-05-13 00:01
Спасибо большое) С 3D Vision от Нвидях смотрится просто шикарно)
colder00
2011-05-13 01:43
AgRoza написал(а):
Спасибо большое) С 3D Vision от Нвидях смотрится просто шикарно)

Везет же счастливым обладателям 120 герцовых мониторов)
lolovovolol
2011-05-15 21:24
Usuke написал(а):
а я хентайщину с мику смотрел :muxaxa:

Убей себя, ты недостоин жизни! (=_=*)
IGAR1995
2014-02-03 11:20
Скорости бы дали!!!
Писать комментарии на нашем торрент-трекере могут только зарегистрированные пользователи.
Зарегистрируйтесь или авторизируйтесь на сайте.