»
»

Скачать фильм Страшный суд / Day of Wrath (Адриан Рудомин) [2006, Боевик, триллер, криминал, DVD5] - торрент

Нажмите на синюю кнопку ниже, чтобы скачать фильм бесплатно через торрент. Фильм доступен на нашем торрент-трекере бесплатно, без регистрации и смс.

Статистика раздачи
1 [ 0 b/s ] ↑ 4.4 GB ↓ 1 [ 0 b/s ]
Автор Сообщение
Aradon
2010-08-15 20:27
Страшный суд / Day of Wrath
Страшный суд / Day of Wrath
Перевод: Профессиональный (двухголосый)
Субтитры: Отсутствуют
Формат: DVD5, DVD Video, MPEG2, AC3
Страна: Великобритания, Венгрия
Режиссер: Адриан Рудомин
Жанр: Боевик, триллер, криминал
Продолжительность: 01:48:34
Год выпуска: 2006

В ролях: Кристофер Ламберт, Бланка Марсиллах, Брайан Блессид, Сонья Орозлан, Джеймс Фолкнер, Бен О`Брайэн, Филлида Ло, Lukács Bicskey, Géza Schramek, Джон Радо, ...

Описание: Испания XVI век. Мрачная эпоха инквизиции. Шериф Руй Де Мендоза, доблестный заступник невинных, расследует загадочные убийства дворян в тихом провинциальном города.
Многие уверены, что это изощренное злодеяние — дело рук самого Сатаны, и хотя непредсказуемые события затягивают Мендозу в своймистический круговорот, он уверен, что преступления — дело рук могущественных злодеев из рода людского. Распутывая колючий клубок тайн, Мендоза приближается к шокирующей истине, но когда появляются свидетельства, связывающие Мендозу с неслыханными злодеяниями, ему приходится сделать выбор между своей совестью и жизнью своей семьи.
Сумеет ли отважный шериф раскрыть истину и покарать злодея, прежде чем город постигнет высшая кара инквизиции, или ему не совладать с дьявольскими кознями таинственных злодеев?


Рейтинг на КиноПоиск: 5.971 (135)
Рейтинг на IMDb: 5.6/10
Рейтинг MPAA: R

Видео: 720X576 (PAL 16:9), 25.000fps, MPEG-2 Video, ~8 240Kbps
Аудио: Русский 48.0KHz, AC-3, 6 ch, ~384Kbps [Профессиональный(двухголосый)]


Трейлер к фильму
Слоган «In The Darkest Days Of The Spanish Inquisition, One Man Stood For Justice.»
MediaInfo

General
Complete name : C:\загрузка\Day_of_Wrath_[tfile.ru]\VIDEO_TS\VTS_01_2.VOB
Format : MPEG-PS
File size : 1 024 MiB
Duration : 24mn 49s
Overall bit rate : 5 765 Kbps

Video
ID : 224 (0xE0)
Format : MPEG Video
Format version : Version 2
Format profile : Main@Main
Format settings, Matrix : Default
Duration : 24mn 49s
Bit rate mode : Variable
Bit rate : 4 704 Kbps
Nominal bit rate : 8 240 Kbps
Width : 720 pixels
Height : 576 pixels
Display aspect ratio : 16/9
Frame rate : 25.000 fps
Standard : PAL
Colorimetry : 4:2:0
Scan type : Interlaced
Scan order : Top Field First
Bits/(Pixel*Frame) : 0.454
Stream size : 835 MiB (82%)

Audio #1
ID : 128 (0x80)
Format : AC-3
Format/Info : Audio Coding 3
Duration : 24mn 49s
Bit rate mode : Constant
Bit rate : 384 Kbps
Channel(s) : 6 channels
Channel positions : Front: L C R, Surround: L R, LFE
Sampling rate : 48.0 KHz
Video delay : -576ms
Stream size : 68.2 MiB (7%)

Audio #2
ID : 129 (0x81)
Format : AC-3
Format/Info : Audio Coding 3
Duration : 24mn 49s
Bit rate mode : Constant
Bit rate : 448 Kbps
Channel(s) : 6 channels
Channel positions : Front: L C R, Surround: L R, LFE
Sampling rate : 48.0 KHz
Video delay : -576ms
Stream size : 79.6 MiB (8%)

Menu
Format : DVD-Video
Дополнительная информация

Сценарий Адриан Рудомин
Продюсер Mujzer András, Мартин Дж. Бараб, Селин Де Ла Пена, ...
Оператор Тамаш Лайош
Композитор Дэвид Швайтцер
Бюджет $12 000 000
Зрители Венгрия 17.2 тыс.
Премьера мир 29 марта 2006
Производство:
1. Azucar Entertainment
2. Bespoke Productions Ltd.
3. IMS 3 LLP
4. Laurinfilm Ltd.

Информация о торренте:
Размер содержимого: 4.4 GB
Скачан: 902 раза
Статус: Проверен
Зарегистрирован на трекере: 2010-08-15 20:27
Скачать торрент


Поддержи раздачу — поставь лайк:
PlayHD
2010-08-15 21:05
О_о, Кристофер Ламберт, только из-за него надо качнуть фильм...

Только вопрос, как аудио переключается? По скринам меню не видно подменю аудио, в котором можно выбрать аудиодорожку...
А вы указали в описании оригинальную дорожку.
Aradon
2010-08-15 21:45
Нет,аудио не переключается,автоматом идет русский язык.Я указал два аудиопотока согласно MediaInfo.Меню не оригинальное,поэтому и нет подменю аудио.Перевод нормальный.
PlayHD
2010-08-15 22:03
Aradon
Исключаю из описания:
Цитата:
Аудио#2: Английский 48.0KHz, AC-3, 6 ch, ~448Kbps [Оригинал]

Так как возможность эту дорогу включить никак не получится через плеер (не софтовый).
Потребуется она разве,чтоль при рипование...
Aradon
2010-08-15 22:11
Спасибо Вам за помощь.
KolaUfa
2010-08-16 17:51
спасибо!!!
tolya-turkin
2010-08-17 09:50
Спасибо
Aradon
2010-08-17 15:25
И Вам спасибо!!!
Писать комментарии на нашем торрент-трекере могут только зарегистрированные пользователи.
Зарегистрируйтесь или авторизируйтесь на сайте.