»
»

Скачать фильм Тёща-командир (1-2 серии из 2) (Сергей Мезенцев, Анна Ерофеева) / [2016, мелодрама, WEB-DL 720p] - торрент

Нажмите на синюю кнопку ниже, чтобы скачать фильм бесплатно через торрент. Фильм доступен на нашем торрент-трекере бесплатно, без регистрации и смс.

Статистика раздачи
0 [ 11.0 KB/s ] ↑ 4.7 GB ↓ 3 [ 231.0 KB/s ]
Автор Сообщение
BLIZNEC W
2018-11-09 12:15
Тёща-командир (1-2 серии из 2)
Тёща-командир Формат: WEB-DL 720p, MKV, H.264, AC3
Режиссер: Сергей Мезенцев, Анна Ерофеева
Жанр: мелодрама
Продолжительность: 2 х ~ 01:30:00
Год выпуска: 2016

В ролях: Янина Соколовская, Максим Дрозд, Анна Васильева, Юрий Поляк, Виктория Лемзякова, Лиона Филиппова, Михаил Богдасаров, Алина Цибизова, Павел Савинков, Никита Санаев, Алёна Олькина, Анастасия Савицкая, Наталья Тищенко, Елена Ветрова, Всеволод Макаров, Геннадий Егоров (II), Юлия Яблонская

Описание: Энергичная Катерина Васильевна, по прозвищу Катвас, привыкла всё решать сама – и за себя, и за свою дочь Галю. Но однажды монархия рушится – Галя влюбляется в простого парня и выходит за него замуж.Молодожены пытаются ужиться в одной квартире с Катериной Васильевной, но семейное гнездо сложно сохранить, когда тёща – командир. Катвас цепляется за любую возможность, чтобы избавиться от чужака…

Рейтинг и доп. информация:


Видео: 1280х720 (16:9), 25 fps, AVC MPEG-4 (x264), High@L3.1 ~ 3445 kbps , 0.149 bit/pixel
Аудио: 48 kHz, АС3, 2/0 (L,R), ~192.00 kbps avg
MediaInfo
Общее
Уникальный идентификатор : 199888924147685822481260304869332871586 (0x966134DA594871A886032F3CA387E9A2)
Полное имя : C:\Teshcha.komandir.WEB-DL.720.25Kuzmich\Teshcha.komandir.(01.seriya.iz.02).WEB-DL.720.25Kuzmich.mkv
Формат : Matroska
Версия формата : Version 2
Размер файла : 2,32 Гбайт
Продолжительность : 1 ч. 29 м.
Режим общего битрейта : Переменный
Общий поток : 3707 Кбит/сек
Название фильма : Teshcha.komandir.(01.seriya.iz.02).WEB-DL.720.25Kuzmich
Дата кодирования : UTC 2018-11-09 00:00:04
Программа кодирования : mkvmerge v4.0.0 ('The Stars were mine') сборка от Jun 6 2010 16:18:42
Библиотека кодирования : libebml v1.0.0 + libmatroska v1.0.0

Видео
Идентификатор : 1
Формат : AVC
Формат/Информация : Advanced Video Codec
Профиль формата : High@L4.1
Настройки формата : CABAC / 5 Ref Frames
Параметр CABAC формата : Да
Параметр RefFrames формата : 5 кадров
Идентификатор кодека : V_MPEG4/ISO/AVC
Продолжительность : 1 ч. 29 м.
Вид битрейта : Переменный
Битрейт : 3441 Кбит/сек
Максимальный битрейт : 40,0 Мбит/сек
Ширина : 1280 пикселей
Высота : 720 пикселей
Соотношение сторон : 16:9
Режим частоты кадров : Постоянный
Частота кадров : 25,000 кадров/сек
Цветовое пространство : YUV
Субдискретизация насыщенности : 4:2:0
Битовая глубина : 8 бит
Тип развёртки : Прогрессивная
Бит/(Пиксели*Кадры) : 0.149
Размер потока : 2,15 Гбайт (93%)
Язык : Russian
Default : Да
Forced : Нет

Аудио
Идентификатор : 2
Формат : AC-3
Формат/Информация : Audio Coding 3
Коммерческое название : Dolby Digital
Идентификатор кодека : A_AC3
Продолжительность : 1 ч. 29 м.
Вид битрейта : Постоянный
Битрейт : 192 Кбит/сек
Каналы : 2 канала
Channel layout : L R
Частота : 48,0 КГц
Частота кадров : 31,250 кадров/сек (1536 SPF)
Битовая глубина : 16 бит
Метод сжатия : С потерями
Размер потока : 123 Мбайт (5%)
Язык : Russian
ServiceKind/String : Complete Main
Default : Да
Forced : Нет

Информация о торренте:
Размер содержимого: 4.7 GB
Скачан: 202 раза
Статус: Проверен
Зарегистрирован на трекере: 2018-11-09 11:15
Скачать торрент


Поддержи раздачу — поставь лайк:
BLIZNEC W
2018-11-09 11:16
Интересного и приятного просмотра!!!

Мои раздачи
Писать комментарии на нашем торрент-трекере могут только зарегистрированные пользователи.
Зарегистрируйтесь или авторизируйтесь на сайте.