»
»

Скачать Сексуальные хроники французской семьи / Chroniques sexuelles dune famille daujourdhui (Жан-Марк Барр, Паскаль Арнольд ) [2012 , мелодрама, комедия, эротика, HDRip-AVC] MVO - торрент

Скачать бесплатно через торрент.

Статистика раздачи
11 [ 572.0 KB/s ] ↑ 1.5 GB ↓ 2 [ 7.0 KB/s ]
Автор Сообщение
monstryu
2018-11-06 18:16
Сексуальные хроники французской семьи / Chroniques sexuelles dune famille daujourdhui
Сексуальные хроники французской семьи / Chroniques sexuelles dune famille daujourdhui
Перевод: Профессиональный (многоголосый закадровый), субтитры: отсутствуют
Формат: HDRip-AVC, MKV, H.264, AC3
Страна: Франция
Режиссер: Жан-Марк Барр, Паскаль Арнольд
Жанр: мелодрама, комедия, эротика
Продолжительность: 01:25:06
Год выпуска: 2012
В ролях: Лейла Денио, Валери Маэс, Майлис Амру, Матиас Меллул, Летиция Фавар, Грегори Аннони, Фостен Дюбуа, Стефан Эрсоен, Нэйтан Дювал, Аделин Ребейляр

Описание: Рутинная жизнь современной семьи претерпевает основательную встряску, когда младший сын Роман оказывается пойман в классе, мастурбирующим и одновременно снимающим себя на камеру в мобильном телефоне. Роману грозит исключение из школы… Выясняется, что его действия — это часть игры, весьма популярной у школьников. До этих пор сексуальная тематика была табуирована в его семье, но теперь она становится центром обсуждения.

[imdb=https://www.imdb.com/title/tt1753584/]

Видео: 1024x576 (16:9), 23.976 fps, AVC MPEG4 (x264), High@L4.1, ~2060 kbps avg, 0.146 bit/pixel
Аудио: 48 kHz, AC3 Dolby Digital, 3/2 (L,C,R,l,r) + LFE ch, ~384 kbps

MI
General
Unique ID : 214063108249410720798030476498689546756 (0xA10B0E1591A0A1B7174034373C1B5A04)
Complete name : C:\Users\123\Desktop\Seksualnye.hroniki.francuzskoj.semi.2012.HDRip-AVC_[tfile.ru].mkv
Format : Matroska
Format version : Version 4 / Version 2
File size : 1.45 GiB
Duration : 1h 25mn
Overall bit rate mode : Constant
Overall bit rate : 2 444 Kbps
Encoded date : UTC 2013-10-19 10:21:05
Writing application : Lavf56.36.100
Writing library : Lavf56.36.100

Video
ID : 2
Format : AVC
Format/Info : Advanced Video Codec
Format profile : High@L4.1
Format settings, CABAC : Yes
Format settings, ReFrames : 2 frames
Format settings, GOP : M=1, N=25
Codec ID : V_MPEG4/ISO/AVC
Duration : 1h 25mn
Bit rate mode : Constant
Bit rate : 2 060 Kbps
Width : 1 024 pixels
Height : 576 pixels
Display aspect ratio : 16:9
Frame rate mode : Constant
Frame rate : 23.976 fps
Color space : YUV
Chroma subsampling : 4:2:0
Bit depth : 8 bits
Scan type : Progressive
Bits/(Pixel*Frame) : 0.146
Stream size : 1.20 GiB (82%)
Default : Yes
Forced : No

Audio
ID : 1
Format : AC-3
Format/Info : Audio Coding 3
Mode extension : CM (complete main)
Format settings, Endianness : Big
Codec ID : A_AC3
Duration : 1h 25mn
Bit rate mode : Constant
Bit rate : 384 Kbps
Channel(s) : 6 channels
Channel positions : Front: L C R, Side: L R, LFE
Sampling rate : 48.0 KHz
Bit depth : 32 bits
Compression mode : Lossy
Stream size : 234 MiB (16%)
Title : MVO |ЛИЦЕНЗИЯ!
Language : Russian
Default : Yes
Forced : No

Информация о торренте:
Размер содержимого: 1.5 GB
Скачан: 389 раз
Статус: Проверен
Зарегистрирован на трекере: 2018-11-06 17:16
Скачать торрент


Поддержи раздачу — поставь лайк:
Писать комментарии на нашем торрент-трекере могут только зарегистрированные пользователи.
Зарегистрируйтесь или авторизируйтесь на сайте.