»
»

Скачать сериал Годунов (1-8 серии из 8) (Алексей Андрианов) / [2018, драма, история, HDTV 1080p] - торрент

Скачать бесплатный торрент сериал. Сериал доступен на нашем торрент-трекере бесплатно, без регистрации и смс.

Статистика раздачи
4 [ 59.0 KB/s ] ↑ 19.6 GB ↓ 0 [ 0 b/s ]
Автор Сообщение
BLIZNEC W
2018-11-06 01:14
Годунов (1-8 серии из 8)
Годунов Перевод: Не требуется, cубтитры: отсутствуют
Формат: HDTV 1080p, MKV, H.264, AC3
Страна: Россия
Режиссер: Алексей Андрианов
Жанр: драма, история
Всего серий: 8
Продолжительность: 8 х ~ 00:50:00
Год выпуска: 2018

В ролях: Сергей Безруков, Светлана Ходченкова, Сергей Маковецкий, Виктор Сухоруков, Александр Устюгов, Мария Андреева, Андрей Мерзликин, Анна Михалкова, Фёдор Лавров, Владимир Стеклов, Ирина Пегова, Антон Кузнецов, Анна Ковальчук, Александр Горбатов (II), Евгений Цыганов, Лен Блаватник, Юрий Колокольников, Борис Плотников, Александр Ильин, Сергей Борисов (III), Павел Ворожцов, Юрий Беляев, Александр Пашутин, Борис Клюев, Иван Моховиков, Юлия Галкина, Александр Семчев, Сергей Никоненко, Артём Алексеев (II), Сергей Серов, Лев Прыгунов, Пётр Логачёв, Светлана Кротова, Кристина Бродская, Олег Васильков, Николай Денисов, Леонид Тимцуник, Сергей Барковский, Сергей Газаров, Виталий Филипповых, Максим Битюков, Ярослав Ефременко, Никита Богомолов, Екатерина Васильева (II), Владимир Тимофеев, Ринат Хайруллин, Николай Ларчуженков, Сейдулла Молдаханов, Вайдотас Мартинайтис, Лаймутис Седжюс, Андрюс Паулавичюс, Альбинас Келярис, Ремигиюс Сабулис, Наталья Гриншпун, Сергей Цепов, Полина Дудкина, Валерия Куликова, Андрей Кайков, Сергей Удовик, Григорий Данцигер, Николай Шрайбер, Лара Шум, Филипп Матвеев-Витовский, Александр Ревенко, Павел Данилов, Павел Сборщиков, Владимир Малков, Нина Дворжецкая, Александра Кузнецова (VII), Аурика Степаненко

Описание: XVI век. Один из самых сложных и противоречивых периодов в истории страны. Тревожная и героическая эпоха Российского царства. Борьба за трон и неразделенная любовь, предательство и интриги, страсти и испытания эпохи – ставка в которой больше, чем жизнь. На кону – будущее Российского государства. В основе сериала реальные исторические события, охватывающие период со времен окончания правления Ивана Грозного и до восшествия на русский престол Михаила Федоровича Романова – первого царя из династии Романовых. В центре беспрецедентного исторического проекта – судьба рода Годуновых. Какую роль сыграют в этой драме сам Борис Годунов, его жена Мария Годунова, сестра Ирина и дочь Ксения, зрителям только предстоит узнать. Впереди – настоящие открытия! В Московском Кремле начинается отсчет последних дней правления Иоанна Грозного. Кто займет место на царском троне, как сложится судьба целого народа, кто способен провести Россию через Смутное время, и как любовь изменяет путь истории. Борис Годунов – бывший опричник и первый на Руси избранный царь. Как и почему, не будучи выходцем из знатного рода и не имея особого состояния, он смог пробиться на самый верх и стать сначала фактическим правителем России, а затем взойти на царский престол…
«История любви. История России»Рейтинг и доп. информация:


Видео: 1920х1080, (16:9), 25 fps, AVC MPEG4 (x264), High@L4.1 ~ 7050 kbps avg, 0.136 bit/pixel
Аудио: 48 kHz, АС3, 2/0 (L,R), ~192.00 kbps avg
MediaInfo
General
Unique ID : 230663566058227180682774630953920982295 (0xAD882FD85AEE1F608C0B6C2DE4636D17)
Complete name : E:Godunov 2018.HDTV 1080p.RG GeneralFilmGodunov.s01.e01.2018.HDTV 1080p.by.White Smoke.R.G.Generalfilm.mkv
Format : Matroska
Format version : Version 4 / Version 2
File size : 2.53 GiB
Duration : 50 min
Overall bit rate mode : Constant
Overall bit rate : 7 164 kb/s
Movie name : Godunov.s01.e01.2018.HDTV 1080p.by.White Smoke.R.G.Generalfilm.mkv
Encoded date : UTC 2018-11-05 22:36:49
Writing application : mkvmerge v6.8.0 ('Theme for Great Cities') 64bit built on Mar 2 2014 21:34:26
Writing library : libebml v1.3.0 + libmatroska v1.4.1
Cover : Yes
Attachments : cover.png

Video
ID : 1
Format : AVC
Format/Info : Advanced Video Codec
Format profile : High@L4.1
Format settings, CABAC : Yes
Format settings, ReFrames : 3 frames
Format settings, GOP : M=3, N=33
Codec ID : V_MPEG4/ISO/AVC
Duration : 50 min
Bit rate mode : Constant
Bit rate : 7 050 kb/s
Width : 1 920 pixels
Height : 1 080 pixels
Display aspect ratio : 16:9
Frame rate mode : Constant
Frame rate : 25.000 FPS
Standard : PAL
Color space : YUV
Chroma subsampling : 4:2:0
Bit depth : 8 bits
Scan type : Progressive
Bits/(Pixel*Frame) : 0.136
Stream size : 2.41 GiB (95%)
Default : Yes
Forced : No
Color range : Limited
Color primaries : BT.709
Transfer characteristics : BT.709
Matrix coefficients : BT.709

Audio
ID : 2
Format : AC-3
Format/Info : Audio Coding 3
Mode extension : CM (complete main)
Format settings, Endianness : Big
Codec ID : A_AC3
Duration : 50 min
Bit rate mode : Constant
Bit rate : 192 kb/s
Channel(s) : 2 channels
Channel positions : Front: L R
Sampling rate : 48.0 kHz
Frame rate : 31.250 FPS (1536 spf)
Compression mode : Lossy
Stream size : 69.3 MiB (3%)
Default : Yes
Forced : No

Информация о торренте:
Размер содержимого: 19.6 GB
Скачан: 227 раз
Статус: Проверен
Зарегистрирован на трекере: 2018-11-09 09:40
Скачать торрент


Поддержи раздачу — поставь лайк:
BLIZNEC W
2018-11-06 00:14
Интересного и приятного просмотра!!!

Мои раздачи
Писать комментарии на нашем торрент-трекере могут только зарегистрированные пользователи.
Зарегистрируйтесь или авторизируйтесь на сайте.