»
»

Скачать сериал Двойка, 2 сезон 1-9 серии из 9 / The Deuce [TVShows] (Алекс Холл, Ута Бризвитц, Триша Брок) [2018, Драма, WEB-DLRip 1080p, P] - торрент

Торрент можно скачать, нажав синюю кнопку ниже. Сериал доступен на нашем торрент-трекере бесплатно, без регистрации и смс.

Статистика раздачи
6 [ 0 b/s ] ↑ 45.7 GB ↓ 0 [ 0 b/s ]
Автор Сообщение
dino crisis
2018-11-04 16:14
Двойка / The Deuce
Двойка, 2 сезон 1-9 серии из 9 / The Deuce [TVShows]
Перевод: Профессиональный (многоголосый закадровый)TVShows субтитры: английские
Формат: WEB-DLRip 1080p, MKV, H.264, AC3
Страна: США, Blown Deadline Productions
Режиссер: Алекс Холл, Ута Бризвитц, Триша Брок
Жанр: Драма
Всего серий: 9
Продолжительность: 9 х ~ 00:50:00
Год выпуска: 2018

В ролях: Джеймс Франко, Мэгги Джилленхол, Доминик Фишбэк, Гари Карр, Дэниэл Саули, Гбенга Акиннагбе, Лоуренс Гиллиард мл., Маргарита Левиева, Эмили Мид, Кристофер Бауэр, Крис Кой, Майкл Рисполи

Описание: Проект исследует беспорядочный мир порно-индустрии 1970-80х годов, процветавший в самом сердце Манхэттена, пока появление СПИДа, распространение наркотиков и обновление рынка недвижимости не положили конец этому безумию.

[imdb=http://www.imdb.com/title/tt4998350/]

Видео: 1920x1080 (16:9), 23.976 fps, AVC (х264), High@L4, ~10700 kbps avg, 0.216 bit/pixel
Аудио: Rus: 48 kHz, AC3 Dolby Digital, 3/2 (L,C,R,l,r) + LFE ch, ~384 kbps
Аудио: Eng: 48 Khz, AC3 Dolby Digital, 3/2 (L,C,R,l,r) + LFE ch, ~640 kbps

Релиз без рекламы


MediaInfo

Общее
Уникальный идентификатор : 296222154325933444006292421620607246674 (0xDEDA4FCCEDDF1F78C6F436C2FBC86152)
Полное имя : I:\Тифайл\The.Deuce.S02.1080p.TVShows\The.Deuce.S02E08.1080p.TVShows.mkv
Формат : Matroska
Версия формата : Version 4 / Version 2
Размер файла : 4,95 Гбайт
Продолжительность : 1 ч. 0 м.
Общий поток : 11,8 Мбит/сек
Дата кодирования : UTC 2018-11-02 21:30:49
Программа кодирования : mkvmerge v28.2.0 ('The Awakening') 64-bit
Библиотека кодирования : libebml v1.3.6 + libmatroska v1.4.9

Видео
Идентификатор : 1
Формат : AVC
Формат/Информация : Advanced Video Codec
Профиль формата : High@L4
Параметр CABAC формата : Да
Параметр ReFrames формата : 4 кадра
Идентификатор кодека : V_MPEG4/ISO/AVC
Продолжительность : 1 ч. 0 м.
Битрейт : 10,7 Мбит/сек
Ширина : 1920 пикселей
Высота : 1080 пикселей
Соотношение сторон : 16:9
Режим частоты кадров : Постоянный
Частота кадров : 23,976 (24000/1001) кадра/сек
Цветовое пространство : YUV
Субдискретизация насыщенности : 4:2:0
Битовая глубина : 8 бит
Тип развёртки : Прогрессивная
Бит/(Пиксели*Кадры) : 0.216
Размер потока : 4,51 Гбайт (91%)
Язык : English
Default : Да
Forced : Нет
Цветовой диапазон : Limited
Основные цвета : BT.709
Характеристики трансфера : BT.709
Коэффициенты матрицы : BT.709

Аудио #1
Идентификатор : 2
Формат : AC-3
Формат/Информация : Audio Coding 3
Параметр Endianness формата : Big
Идентификатор кодека : A_AC3
Продолжительность : 1 ч. 0 м.
Вид битрейта : Постоянный
Битрейт : 384 Кбит/сек
Каналы : 6 каналов
Расположение каналов : Front: L C R, Side: L R, LFE
Частота : 48,0 КГц
Частота кадров : 31,250 кадров/сек (1536 spf)
Битовая глубина : 16 бит
Метод сжатия : С потерями
Размер потока : 165 Мбайт (3%)
Заголовок : TVShows
Язык : Russian
ServiceKind/String : Complete Main
Default : Да
Forced : Да

Аудио #2
Идентификатор : 3
Формат : E-AC-3
Формат/Информация : Enhanced Audio Coding 3
Параметр Endianness формата : Big
Идентификатор кодека : A_EAC3
Продолжительность : 1 ч. 0 м.
Вид битрейта : Постоянный
Битрейт : 640 Кбит/сек
Каналы : 6 каналов
Расположение каналов : Front: L C R, Side: L R, LFE
Частота : 48,0 КГц
Частота кадров : 187,500 кадров/сек (256 spf)
Метод сжатия : С потерями
Задержка видео : 23 мс.
Размер потока : 276 Мбайт (5%)
Заголовок : Original
Язык : English
ServiceKind/String : Complete Main
Default : Нет
Forced : Нет

Текст
Идентификатор : 4
Формат : UTF-8
Идентификатор кодека : S_TEXT/UTF8
Идентификатор кодека/Информация : UTF-8 Plain Text
Продолжительность : 1 ч. 0 м.
Битрейт : 76 бит/сек
ElementCount : 1097
Размер потока : 33,8 Кбайт (0%)
Заголовок : English
Язык : English
Default : Нет
Forced : Нет


Информация о торренте:
Размер содержимого: 45.7 GB
Скачан: 17 раз
Статус: Проверен
Зарегистрирован на трекере: 2018-11-09 11:56
Скачать торрент


Поддержи раздачу — поставь лайк:
Писать комментарии на нашем торрент-трекере могут только зарегистрированные пользователи.
Зарегистрируйтесь или авторизируйтесь на сайте.