»
»

Скачать мультфильм Звёздные войны: Сопротивление, 1 сезон 1-5 серии из 10 / Star Wars Resistance (Эми Бет Кристенсон, Дэйв Филони) [2018, Мультсериал, фантастика, боевик, приключения, WEB-DLRip 1080р] MVO - торрент

Скачать бесплатный торрент мультфильм. Мультфильм доступен на нашем торрент-трекере бесплатно, без регистрации и смс.

Статистика раздачи
1 [ 0 b/s ] ↑ 5.3 GB ↓ 0 [ 0 b/s ]
Автор Сообщение
dino crisis
2018-11-04 13:26
Звёздные войны: Сопротивление / Star Wars Resistance
Звёздные войны: Сопротивление, 1 сезон 1-5 серии из 10 / Star Wars Resistance
Перевод: Профессиональный (многоголосый, закадровый) TVShows cубтитры: аглийские
Формат: WEB-DLRip 1080p, MKV, H.264, AC3
Страна: США, Disney XD, Lucasfilm Animation, Lucasfilm
Режиссер: Эми Бет Кристенсон, Дэйв Филони
Жанр: Мультсериал, фантастика, боевик, приключения
Продолжительность: 5 x ~ 00:22:00
Год выпуска: 2018
Всего серий: 10

В ролях: Алексис Лэнг, Крис Фрил, Скотт Лоуренс, Джош Бренер, Рэйчел Батера, Гвендолин Кристи, Дональд Фэйзон, Оскар Айзек, Мэри Элизабет МакГлинн, Сьюзи МакГрат

Описание: Кадзуда Сионо — молодой пилот, недавно вступивший в ряды Сопротивления под командованием генерала Леи. Несмотря на юный возраст, Кадзуде поручают важное задание — разведать, чем занимается Первый орден.

[imdb=http://www.imdb.com/title/tt8336340/]

Видео: 1920x1080 (16:9), 23.976 fps, AVC (х264), High@L4, ~5044 kbps avg, 0.101 bit/pixel
Аудио: Rus: 48 kHz, AC3 Dolby Digital, 3/2 (L,C,R,l,r) + LFE ch, ~384 kbps
Аудио: Eng: 48 Khz, AC3 Dolby Digital, 3/2 (L,C,R,l,r) + LFE ch, ~384 kbps

Релиз без рекламы

Перевод:


Внимание! Раздача ведётся путём добавления новых серий

[Внимание! Раздача ведётся путём добавления новых серий; при каждом добавлении создаётся новый торрент. Чтобы начать докачку новой серии, пользователям необходимо сделать следующее:
(1) остановить скачивание,
(2) удалить старый торрент у себя из клиента (старые серии удалять не надо),
(3) скачать новый торрент и запустить его у себя в клиенте вместо старого, при этом указать клиенту путь в старую папку куда и должно происходить скачивание новых серий.

Ваш клиент при этом должен произвести хеширование (проверку) старой папки (если не производит сам - помогите ему сделать это), и будет докачивать только те серии которых у вас ещё нет. Старые серии при этом не удаляются, а продолжают раздаваться!

Eсли вы уже удалили старые серии, то предотвратить повторную закачку старых серий можно, отжав галочку в соответствующих местах при запуске нового торрента. По возможности, желательно не удалять старые серии как можно дольше, чтобы релизёр не столько продолжал раздавать старые серии, а смог сконцентрироваться на новых

MediaInfo

Общее
Уникальный идентификатор : 320903700010015969963128488293220397024 (0xF16BCDF475720B11A607084CDAFEAFE0)
Полное имя : I:\Тифайл\Star.Wars.Resistance.S01.1080p.TVShows\Star.Wars.Resistance.S01E02.1080p.TVShows.mkv
Формат : Matroska
Версия формата : Version 4 / Version 2
Размер файла : 920 Мбайт
Продолжительность : 22 м. 6 с.
Общий поток : 5814 Кбит/сек
Дата кодирования : UTC 2018-10-27 22:42:53
Программа кодирования : mkvmerge v28.2.0 ('The Awakening') 32-bit
Библиотека кодирования : libebml v1.3.6 + libmatroska v1.4.9
Обложка : Yes
Attachments : small_cover.jpg / cover.jpg / cover_land.jpg / small_cover_land.jpg

Видео
Идентификатор : 1
Формат : AVC
Формат/Информация : Advanced Video Codec
Профиль формата : High@L4
Параметр CABAC формата : Да
Параметр ReFrames формата : 4 кадра
Идентификатор кодека : V_MPEG4/ISO/AVC
Продолжительность : 22 м. 6 с.
Битрейт : 5044 Кбит/сек
Ширина : 1920 пикселей
Высота : 1080 пикселей
Соотношение сторон : 16:9
Режим частоты кадров : Постоянный
Частота кадров : 23,976 (24000/1001) кадра/сек
Цветовое пространство : YUV
Субдискретизация насыщенности : 4:2:0
Битовая глубина : 8 бит
Тип развёртки : Прогрессивная
Бит/(Пиксели*Кадры) : 0.101
Размер потока : 798 Мбайт (87%)
Заголовок : H.264
Язык : English
Default : Да
Forced : Нет
Цветовой диапазон : Limited
Основные цвета : BT.709
Характеристики трансфера : BT.709
Коэффициенты матрицы : BT.709

Аудио #1
Идентификатор : 2
Формат : AC-3
Формат/Информация : Audio Coding 3
Параметр Endianness формата : Big
Идентификатор кодека : A_AC3
Продолжительность : 22 м. 6 с.
Вид битрейта : Постоянный
Битрейт : 384 Кбит/сек
Каналы : 6 каналов
Расположение каналов : Front: L C R, Side: L R, LFE
Частота : 48,0 КГц
Частота кадров : 31,250 кадров/сек (1536 spf)
Битовая глубина : 16 бит
Метод сжатия : С потерями
Размер потока : 60,7 Мбайт (7%)
Заголовок : TVShows
Язык : Russian
ServiceKind/String : Complete Main
Default : Да
Forced : Нет

Аудио #2
Идентификатор : 3
Формат : AC-3
Формат/Информация : Audio Coding 3
Параметр Endianness формата : Big
Идентификатор кодека : A_AC3
Продолжительность : 22 м. 6 с.
Вид битрейта : Постоянный
Битрейт : 384 Кбит/сек
Каналы : 6 каналов
Расположение каналов : Front: L C R, Side: L R, LFE
Частота : 48,0 КГц
Частота кадров : 31,250 кадров/сек (1536 spf)
Битовая глубина : 16 бит
Метод сжатия : С потерями
Размер потока : 60,7 Мбайт (7%)
Заголовок : Original
Язык : English
ServiceKind/String : Complete Main
Default : Нет
Forced : Нет

Текст
Идентификатор : 4
Формат : UTF-8
Идентификатор кодека : S_TEXT/UTF8
Идентификатор кодека/Информация : UTF-8 Plain Text
Продолжительность : 21 м. 29 с.
Битрейт : 84 бит/сек
ElementCount : 517
Размер потока : 13,3 Кбайт (0%)
Заголовок : English
Язык : English
Default : Нет
Forced : Нет


Информация о торренте:
Размер содержимого: 5.3 GB
Скачан: 10 раз
Статус: Обновляемая раздача
Зарегистрирован на трекере: 2018-11-13 11:13
Скачать торрент


Поддержи раздачу — поставь лайк:
E-mail:
* Это обновляемая раздача и мы можем вас информировать об обновлении торрента в ней.

Писать комментарии на нашем торрент-трекере могут только зарегистрированные пользователи.
Зарегистрируйтесь или авторизируйтесь на сайте.