»
»

Скачать сериал Смертельное оружие, 3 сезон 1-5 серии из 22 / Lethal Weapon [TVShows] (Стив Бойум, Ник Копус, Роб Бэйли) [2018, Боевик, триллер, драма, криминал, WEB-DLRip 1080p, P] - торрент

Скачать через торрент сериал вы можете, нажав на синюю кнопку. Сериал доступен на нашем торрент-трекере бесплатно, без регистрации и смс.

Статистика раздачи
0 [ 0 b/s ] ↑ 11.9 GB ↓ 1 [ 0 b/s ]
Автор Сообщение
dino crisis
2018-11-04 12:56
Смертельное оружие / Lethal Weapon
Смертельное оружие, 3 сезон 1-5 серии из 22 / Lethal Weapon [TVShows]
Перевод: Профессиональный (многоголосый закадровый)TVShows субтитры: аглийские
Формат: WEB-DLRip 1080p, MKV, H.264, AC3
Страна: США, Warner Bros. Television
Режиссер: Стив Бойум, Ник Копус, Роб Бэйли
Жанр: Боевик, триллер, драма, криминал
Всего серий: 22
Продолжительность: 5 x ~ 00:44:00
Год выпуска: 2018

В ролях: Дэймон Уайанс, Киша Шарп, Шонн Уильям Скотт, Кевин Рам, Мишель Митченор, Джонатан Фернандез, Чандлер Кинни, Джордана Брюстер, Данте Браун

Описание: Бывший международный оперативник ЦРУ Уэсли Коул возвращается домой, и вступает в ряды Департамента полиции Лос-Анджелеса. Коул становится новым партнером детектива Роджера Мерто, и пытается приспособиться к жизни в городе. Тем временем Эйвери продолжает свою избирательную кампанию в городской совет.

[imdb=http://www.imdb.com/title/tt5164196/]

Видео: 1920x1080 (16:9), 23.976 fps, AVC (х264), High@L4, ~6311 kbps avg, 0.127 bit/pixel
Аудио 1#: Rus: 48 kHz, AC3 Dolby Digital, 3/2 (L,C,R,l,r) + LFE ch, ~384 kbps
Аудио 2#: Eng: 48 Khz, AC3 Dolby Digital, 3/2 (L,C,R,l,r) + LFE ch, ~640 kbps

Релиз без рекламы


Внимание! Раздача ведётся путём добавления новых серий

[Внимание! Раздача ведётся путём добавления новых серий; при каждом добавлении создаётся новый торрент. Чтобы начать докачку новой серии, пользователям необходимо сделать следующее:
(1) остановить скачивание,
(2) удалить старый торрент у себя из клиента (старые серии удалять не надо),
(3) скачать новый торрент и запустить его у себя в клиенте вместо старого, при этом указать клиенту путь в старую папку куда и должно происходить скачивание новых серий.

Ваш клиент при этом должен произвести хеширование (проверку) старой папки (если не производит сам - помогите ему сделать это), и будет докачивать только те серии которых у вас ещё нет. Старые серии при этом не удаляются, а продолжают раздаваться!

Eсли вы уже удалили старые серии, то предотвратить повторную закачку старых серий можно, отжав галочку в соответствующих местах при запуске нового торрента. По возможности, желательно не удалять старые серии как можно дольше, чтобы релизёр не столько продолжал раздавать старые серии, а смог сконцентрироваться на новых

MediaInfo

Общее
Уникальный идентификатор : 300336048138506547402082182518257083491 (0xE1F29E6CE17573F9A769DAC9745DE463)
Полное имя : I:\Тифайл\Lethal.Weapon.S03.1080p.TVShows\Lethal.Weapon.S03E02.1080p.TVShows.mkv
Формат : Matroska
Версия формата : Version 4 / Version 2
Размер файла : 2,23 Гбайт
Продолжительность : 44 м. 13 с.
Режим общего битрейта : Переменный
Общий поток : 7234 Кбит/сек
Дата кодирования : UTC 2018-10-23 21:26:56
Программа кодирования : mkvmerge v24.0.0 ('Beyond The Pale') 64-bit
Библиотека кодирования : libebml v1.3.6 + libmatroska v1.4.9

Видео
Идентификатор : 1
Формат : AVC
Формат/Информация : Advanced Video Codec
Профиль формата : High@L4
Параметр CABAC формата : Да
Параметр ReFrames формата : 4 кадра
Идентификатор кодека : V_MPEG4/ISO/AVC
Продолжительность : 43 м. 33 с.
Вид битрейта : Переменный
Битрейт : 6311 Кбит/сек
Максимальный битрейт : 15,0 Мбит/сек
Ширина : 1920 пикселей
Высота : 1080 пикселей
Соотношение сторон : 16:9
Режим частоты кадров : Постоянный
Частота кадров : 23,976 (24000/1001) кадра/сек
Цветовое пространство : YUV
Субдискретизация насыщенности : 4:2:0
Битовая глубина : 8 бит
Тип развёртки : Прогрессивная
Бит/(Пиксели*Кадры) : 0.127
Размер потока : 1,92 Гбайт (86%)
Default : Да
Forced : Нет
Цветовой диапазон : Limited
Основные цвета : BT.709
Характеристики трансфера : BT.709
Коэффициенты матрицы : BT.709

Аудио #1
Идентификатор : 2
Формат : AC-3
Формат/Информация : Audio Coding 3
Параметр Endianness формата : Big
Идентификатор кодека : A_AC3
Продолжительность : 44 м. 13 с.
Вид битрейта : Постоянный
Битрейт : 384 Кбит/сек
Каналы : 6 каналов
Расположение каналов : Front: L C R, Side: L R, LFE
Частота : 48,0 КГц
Частота кадров : 31,250 кадров/сек (1536 spf)
Битовая глубина : 16 бит
Метод сжатия : С потерями
Размер потока : 121 Мбайт (5%)
Заголовок : TVShows
Язык : Russian
ServiceKind/String : Complete Main
Default : Да
Forced : Да

Аудио #2
Идентификатор : 3
Формат : E-AC-3
Формат/Информация : Enhanced Audio Coding 3
Параметр Endianness формата : Big
Идентификатор кодека : A_EAC3
Продолжительность : 43 м. 33 с.
Вид битрейта : Постоянный
Битрейт : 640 Кбит/сек
Каналы : 6 каналов
Расположение каналов : Front: L C R, Side: L R, LFE
Частота : 48,0 КГц
Частота кадров : 187,500 кадров/сек (256 spf)
Метод сжатия : С потерями
Размер потока : 199 Мбайт (9%)
Заголовок : Original
Язык : English
ServiceKind/String : Complete Main
Default : Нет
Forced : Нет

Текст
Идентификатор : 4
Формат : UTF-8
Идентификатор кодека : S_TEXT/UTF8
Идентификатор кодека/Информация : UTF-8 Plain Text
Продолжительность : 42 м. 52 с.
Битрейт : 80 бит/сек
ElementCount : 839
Размер потока : 25,3 Кбайт (0%)
Заголовок : English
Язык : English
Default : Нет
Forced : Нет


Информация о торренте:
Размер содержимого: 11.9 GB
Скачан: 98 раз
Статус: Обновляемая раздача
Зарегистрирован на трекере: 2018-11-05 07:25
Скачать торрент


Поддержи раздачу — поставь лайк:
E-mail:
* Это обновляемая раздача и мы можем вас информировать об обновлении торрента в ней.

dino crisis
2018-11-05 07:28
раздача обновлена. Добавлено 5 серия
Писать комментарии на нашем торрент-трекере могут только зарегистрированные пользователи.
Зарегистрируйтесь или авторизируйтесь на сайте.