»
»

Скачать сериал Крик / Плач, 1 сезон 1-4 серии из 4 / The Cry [TVShows] (Глендин Айвин) [2018, Триллер, HDTVRip 1080p, P] - торрент

Скачать сериал бесплатно через торрент. Сериал доступен на нашем торрент-трекере бесплатно, без регистрации и смс.

Статистика раздачи
13 [ 29.0 KB/s ] ↑ 7.3 GB ↓ 0 [ 0 b/s ]
Автор Сообщение
dino crisis
2018-11-03 20:50
Крик (Плач) / The Cry
Крик / Плач, 1 сезон 1-4 серии из 4 / The Cry [TVShows]
Перевод: Профессиональный (многоголосый закадровый)TVShows субтитры: отсутствуют
Формат: HDTVRip 1080p, MKV, H.264, AC3
Страна: Великобритания, Synchronicity Films
Режиссер: Глендин Айвин
Жанр: Триллер
Всего серий: 4
Продолжительность: 4 x ~ 00:57:00
Год выпуска: 2018

В ролях: Дженна Коулман, Ивен Лесли, Ашер Кедди, Мойо Аканде, Шарина Клэнтон, Кейт Дики, Алекс Димитриадес, Дэвид Эллиот, Стелла Гонет, Натали Хизлоп

Описание: Молодые родители Джоанна и Алистер вместе с ребенком приезжают из Шотландии в маленький прибрежный городок в Австралии. Они хотят повидаться с родственниками и разрешить спор с бывшей женой Алистера Александрой, которая лишила его права опеки над дочерью Хлое. По пути из Мельбурна в Гилонг маленький сын супругов бесследно исчезает буквально посреди пустынного шоссе. Пытаясь найти ребенка, герои находятся под постоянным психологическим давлением и переживают страшную трагедию, которая усугубляется навязчивым вниманием прессы.

[imdb=http://www.imdb.com/title/tt5473364/]

Видео: 1920x960 (2.00:1), 25.000 fps, AVC (х264), High@L4,2 ~4006 kbps avg, 0.087 bit/pixel
Аудио: Rus: 48 kHz, AC3 Dolby Digital, 2/0 (L,R) ch, ~192 kbps
Аудио: Eng: 48 Khz, AC3 Dolby Digital, 2/0 (L,R) ch, ~192 kbps

Релиз без рекламы


MediaInfo

Общее
Уникальный идентификатор : 242794622801994920154902674888690299347 (0xB6A88B1ED26F75666C2113BAA334F1D3)
Полное имя : I:\Тифайл\The.Cry.S01.1080p.TVShows\The.Cry.S01E02.1080p.TVShows.mkv
Формат : Matroska
Версия формата : Version 4 / Version 2
Размер файла : 1,75 Гбайт
Продолжительность : 57 м. 10 с.
Общий поток : 4392 Кбит/сек
Дата кодирования : UTC 2018-10-23 09:11:25
Программа кодирования : mkvmerge v24.0.0 ('Beyond The Pale') 64-bit
Библиотека кодирования : libebml v1.3.6 + libmatroska v1.4.9

Видео
Идентификатор : 1
Формат : AVC
Формат/Информация : Advanced Video Codec
Профиль формата : High@L4.2
Параметр CABAC формата : Да
Параметр ReFrames формата : 4 кадра
Идентификатор кодека : V_MPEG4/ISO/AVC
Продолжительность : 57 м. 10 с.
Битрейт : 4006 Кбит/сек
Ширина : 1920 пикселей
Высота : 960 пикселей
Соотношение сторон : 2,000
Режим частоты кадров : Постоянный
Частота кадров : 25,000 кадров/сек
Цветовое пространство : YUV
Субдискретизация насыщенности : 4:2:0
Битовая глубина : 8 бит
Тип развёртки : Прогрессивная
Бит/(Пиксели*Кадры) : 0.087
Размер потока : 1,60 Гбайт (91%)
Библиотека кодирования : x264 core 157 r2932 303c484
Настройки программы : cabac=1 / ref=4 / deblock=1:0:0 / analyse=0x3:0x113 / me=hex / subme=8 / psy=1 / psy_rd=1.00:0.00 / mixed_ref=1 / me_range=16 / chroma_me=1 / trellis=2 / 8x8dct=1 / cqm=0 / deadzone=21,11 / fast_pskip=1 / chroma_qp_offset=-2 / threads=12 / lookahead_threads=2 / sliced_threads=0 / nr=0 / decimate=1 / interlaced=0 / bluray_compat=0 / constrained_intra=0 / bframes=3 / b_pyramid=2 / b_adapt=1 / b_bias=0 / direct=3 / weightb=1 / open_gop=0 / weightp=2 / keyint=250 / keyint_min=25 / scenecut=40 / intra_refresh=0 / rc_lookahead=50 / rc=crf / mbtree=1 / crf=17.0 / qcomp=0.60 / qpmin=0 / qpmax=69 / qpstep=4 / ip_ratio=1.40 / aq=1:1.00
Язык : English
Default : Да
Forced : Нет
Цветовой диапазон : Limited
Коэффициенты матрицы : BT.709

Аудио #1
Идентификатор : 2
Формат : AC-3
Формат/Информация : Audio Coding 3
Параметр Endianness формата : Big
Идентификатор кодека : A_AC3
Продолжительность : 57 м. 10 с.
Вид битрейта : Постоянный
Битрейт : 192 Кбит/сек
Каналы : 2 канала
Расположение каналов : Front: L R
Частота : 48,0 КГц
Частота кадров : 31,250 кадров/сек (1536 spf)
Битовая глубина : 16 бит
Метод сжатия : С потерями
Размер потока : 78,5 Мбайт (4%)
Заголовок : TVShows
Язык : Russian
ServiceKind/String : Complete Main
Default : Да
Forced : Да

Аудио #2
Идентификатор : 3
Формат : AC-3
Формат/Информация : Audio Coding 3
Параметр Endianness формата : Big
Идентификатор кодека : A_AC3
Продолжительность : 57 м. 10 с.
Вид битрейта : Постоянный
Битрейт : 192 Кбит/сек
Каналы : 2 канала
Расположение каналов : Front: L R
Частота : 48,0 КГц
Частота кадров : 31,250 кадров/сек (1536 spf)
Битовая глубина : 16 бит
Метод сжатия : С потерями
Размер потока : 78,5 Мбайт (4%)
Заголовок : Original
Язык : English
ServiceKind/String : Complete Main
Default : Нет
Forced : Нет


Информация о торренте:
Размер содержимого: 7.3 GB
Скачан: 88 раз
Статус: Проверен
Зарегистрирован на трекере: 2018-11-03 19:50
Скачать торрент


Поддержи раздачу — поставь лайк:
Писать комментарии на нашем торрент-трекере могут только зарегистрированные пользователи.
Зарегистрируйтесь или авторизируйтесь на сайте.