»
»

Скачать сериал Зачарованные, 1 сезон 1-4 серии из 13 / Charmed [TVShows] (Ванесса Парис, Майкл А. Алловиц, Майкл Ланж) [2018, Фэнтези, драма, комедия, детектив, WEB-DLRip 1080р, Р] - торрент

Скачать сериал бесплатно через торрент. Сериал доступен на нашем торрент-трекере бесплатно, без регистрации и смс.

Статистика раздачи
1 [ 0 b/s ] ↑ 9.9 GB ↓ 2 [ 0 b/s ]
Автор Сообщение
dino crisis
2018-11-02 15:31
Зачарованные / Charmed
Зачарованные, 1 сезон 1-4 серии из 13 / Charmed [TVShows]
Перевод: Профессиональный (многоголосый закадровый)TVShows Субтитры: английские
Формат: WEB-DLRip 1080р, MKV, H.264, AC3
Страна: США, Northshore Productions Inc., Paramount Pictures, Spelling Television, Viacom Productions Inc
Режиссер: Ванесса Парис, Майкл А. Алловиц, Майкл Ланж
Жанр: Фэнтези, драма, комедия, детектив
Всего серий: 13
Продолжительность: 4 x ~ 00:43:00
Год выпуска: 2018

В ролях: Мелони Диас, Мадлен Манток, Сара Джеффри, Руперт Эванс, Эллен Тамаки, Сер`Дариус Блэйн, Чарльз Гиллеспи, Джером Ю, Натали Холл

Описание: В центре внимания сюжета оказываются три сестры, каждая из которых по-своему интересна. Мэйси - типичная заучка, которая предпочитает проводить время за учебниками, Мел - активная девушка, продвигающая взгляды феминистического характера. Мэдисон - типичная чирлидерша, обожающая тусы и общение. Главные героини проживают в небольшом студенческом городке, в котором буквально кипит жизнь. Вскоре девушки узнают, что являются потомками настоящих ведьм, что говорит лишь о том, что троица - тоже ведьмы. С этого момента их жизнь переворачивается! Они погружаются в мир магии, колдовства и борьбы с монстрами, демонами и прочими существами.

[imdb=http://www.imdb.com/title/tt6394324/]

Видео: 1920x1080 (16:9), 23.976 fps, AVC (х264), High@L4, ~5906 kbps avg, 0.119 bit/pixel
Аудио 1#: Rus: 48 kHz, AC3 Dolby Digital, 3/2 (L,C,R,l,r) + LFE ch, ~384 kbps
Аудио 2#: Eng: 48 Khz, AC3 Dolby Digital, 3/2 (L,C,R,l,r) + LFE ch, ~640 kbps

Релиз без рекламы


Внимание! Раздача ведётся путём добавления новых серий

[Внимание! Раздача ведётся путём добавления новых серий; при каждом добавлении создаётся новый торрент. Чтобы начать докачку новой серии, пользователям необходимо сделать следующее:
(1) остановить скачивание,
(2) удалить старый торрент у себя из клиента (старые серии удалять не надо),
(3) скачать новый торрент и запустить его у себя в клиенте вместо старого, при этом указать клиенту путь в старую папку куда и должно происходить скачивание новых серий.

Ваш клиент при этом должен произвести хеширование (проверку) старой папки (если не производит сам - помогите ему сделать это), и будет докачивать только те серии которых у вас ещё нет. Старые серии при этом не удаляются, а продолжают раздаваться!

Eсли вы уже удалили старые серии, то предотвратить повторную закачку старых серий можно, отжав галочку в соответствующих местах при запуске нового торрента. По возможности, желательно не удалять старые серии как можно дольше, чтобы релизёр не столько продолжал раздавать старые серии, а смог сконцентрироваться на новых

MediaInfo

Общее
Уникальный идентификатор : 277617244603837509409658733817936506643 (0xD0DB22EE215E072274B31171C3886F13)
Полное имя : I:\Новая папка (3)\Залитые\Charmed.S01.1080p.TVShows\Charmed.S01E01.1080p.TVShows.mkv
Формат : Matroska
Версия формата : Version 4 / Version 2
Размер файла : 2,06 Гбайт
Продолжительность : 42 м. 34 с.
Общий поток : 6932 Кбит/сек
Дата кодирования : UTC 2018-10-27 22:19:19
Программа кодирования : mkvmerge v28.2.0 ('The Awakening') 32-bit
Библиотека кодирования : libebml v1.3.6 + libmatroska v1.4.9

Видео
Идентификатор : 1
Формат : AVC
Формат/Информация : Advanced Video Codec
Профиль формата : High@L4
Параметр CABAC формата : Да
Параметр ReFrames формата : 4 кадра
Идентификатор кодека : V_MPEG4/ISO/AVC
Продолжительность : 42 м. 34 с.
Битрейт : 5906 Кбит/сек
Ширина : 1920 пикселей
Высота : 1080 пикселей
Соотношение сторон : 16:9
Режим частоты кадров : Постоянный
Частота кадров : 23,976 (24000/1001) кадра/сек
Цветовое пространство : YUV
Субдискретизация насыщенности : 4:2:0
Битовая глубина : 8 бит
Тип развёртки : Прогрессивная
Бит/(Пиксели*Кадры) : 0.119
Размер потока : 1,76 Гбайт (85%)
Default : Да
Forced : Нет
Цветовой диапазон : Limited
Основные цвета : BT.709
Характеристики трансфера : BT.709
Коэффициенты матрицы : BT.709

Аудио #1
Идентификатор : 2
Формат : AC-3
Формат/Информация : Audio Coding 3
Параметр Endianness формата : Big
Идентификатор кодека : A_AC3
Продолжительность : 42 м. 34 с.
Вид битрейта : Постоянный
Битрейт : 384 Кбит/сек
Каналы : 6 каналов
Расположение каналов : Front: L C R, Side: L R, LFE
Частота : 48,0 КГц
Частота кадров : 31,250 кадров/сек (1536 spf)
Битовая глубина : 16 бит
Метод сжатия : С потерями
Размер потока : 117 Мбайт (6%)
Заголовок : TVShows
Язык : Russian
ServiceKind/String : Complete Main
Default : Да
Forced : Нет

Аудио #2
Идентификатор : 3
Формат : E-AC-3
Формат/Информация : Enhanced Audio Coding 3
Параметр Endianness формата : Big
Идентификатор кодека : A_EAC3
Продолжительность : 42 м. 34 с.
Вид битрейта : Постоянный
Битрейт : 640 Кбит/сек
Каналы : 6 каналов
Расположение каналов : Front: L C R, Side: L R, LFE
Частота : 48,0 КГц
Частота кадров : 187,500 кадров/сек (256 spf)
Метод сжатия : С потерями
Размер потока : 195 Мбайт (9%)
Заголовок : Original
Язык : English
ServiceKind/String : Complete Main
Default : Нет
Forced : Нет

Текст
Идентификатор : 4
Формат : UTF-8
Идентификатор кодека : S_TEXT/UTF8
Идентификатор кодека/Информация : UTF-8 Plain Text
Продолжительность : 42 м. 1 с.
Битрейт : 77 бит/сек
ElementCount : 819
Размер потока : 23,8 Кбайт (0%)
Заголовок : English
Язык : English
Default : Нет
Forced : Нет


Информация о торренте:
Размер содержимого: 9.9 GB
Скачан: 14 раз
Статус: Обновляемая раздача
Зарегистрирован на трекере: 2018-11-14 10:42
Скачать торрент


Поддержи раздачу — поставь лайк:
E-mail:
* Это обновляемая раздача и мы можем вас информировать об обновлении торрента в ней.

dino crisis
2018-11-05 07:32
раздача обновлена.Добавлена 3 серия
Писать комментарии на нашем торрент-трекере могут только зарегистрированные пользователи.
Зарегистрируйтесь или авторизируйтесь на сайте.