»
»

Скачать фильм Лучше всех (1-4 серии из 4) (Максим Бернадский) / [2018, мелодрама, WEBRip 720p] - торрент

Скачать торрент фильм можно, нажав на синюю кнопку ниже. Фильм доступен на нашем торрент-трекере бесплатно, без регистрации и смс.

Статистика раздачи
6 [ 0 b/s ] ↑ 4.3 GB ↓ 0 [ 0 b/s ]
Автор Сообщение
BLIZNEC W
2018-11-02 09:07
Лучше всех (1-4 серии из 4)
Лучше всех Страна: Украина
Перевод: не требуется
Формат: WEBRip 720p, MKV, H.264, AC3
Режиссер: Максим Бернадский
Жанр: мелодрама
Продолжительность: 4 х 00:47:00
Год выпуска: 2018

В ролях: Александра Эпштейн, Дмитрий Пчела, Наталья Калатай, Дмитрий Сова, Игорь Пазыч, Дарина Панасенко, Яков Кучеревский, Инна Мирошниченко, Алексей Нагрудный, Ольга Морозова, Юрий Высоцкий, Алексей Дзюбинский, Полина Носыхина, Екатерина Козлова, Ангелина Прийма

Описание: Маша Лаврова живет в небольшом городке с мамой Анной, старшей сестрой Надеждой, ее мужем Сергеем и их дочкой Соней. Маша – подающая большие надежды талантливая пианистка, а Сергей с Надей – молодые ученые, которых уже давно зовут работать в столицу. Но неожиданно приходит беда...

Рейтинг и доп. информация:


Видео: 1280х720 (16:9), 25 fps, AVC MPEG-4 (x264), High@L4.1 ~ 3000 kbps , 0.130 bit/pixel
Аудио: 48 kHz, AC3, 2/0 (L,R) ch, ~192 kbps
MediaInfo
Общее
Уникальный идентификатор : 17533852812034252379523549202390789434 (0xD30E5B005611EA4B0077437FF7D2D3A)
Полное имя : C:\Лучше всех.2018.WEBRip (720p).by.Nicodem.Files-x\01.Лучше всех.2018.WEBRip (720p).by.Nicodem.Files-x.mkv
Формат : Matroska
Версия формата : Version 4
Размер файла : 1,03 Гбайт
Продолжительность : 46 м. 35 с.
Режим общего битрейта : Постоянный
Общий поток : 3167 Кбит/сек
Программа кодирования : Lavf56.36.100
Библиотека кодирования : Lavf56.36.100

Видео
Идентификатор : 1
Формат : AVC
Формат/Информация : Advanced Video Codec
Профиль формата : High@L3.1
Настройки формата : 2 Ref Frames
Параметр CABAC формата : Нет
Параметр RefFrames формата : 2 кадра
Идентификатор кодека : V_MPEG4/ISO/AVC
Продолжительность : 46 м. 35 с.
Вид битрейта : Постоянный
Битрейт : 3000 Кбит/сек
Ширина : 1280 пикселей
Высота : 720 пикселей
Соотношение сторон : 16:9
Режим частоты кадров : Постоянный
Частота кадров : 25,000 кадров/сек
Стандарт вещания : PAL
Цветовое пространство : YUV
Субдискретизация насыщенности : 4:2:0
Битовая глубина : 8 бит
Тип развёртки : Прогрессивная
Бит/(Пиксели*Кадры) : 0.130
Размер потока : 970 Мбайт (92%)
Default : Да
Forced : Нет
Цветовой диапазон : Limited
Основные цвета : BT.709
Характеристики трансфера : BT.709
Коэффициенты матрицы : BT.709

Аудио
Идентификатор : 2
Формат : AC-3
Формат/Информация : Audio Coding 3
Коммерческое название : Dolby Digital
Идентификатор кодека : A_AC3
Продолжительность : 46 м. 35 с.
Вид битрейта : Постоянный
Битрейт : 192 Кбит/сек
Каналы : 2 канала
Channel layout : L R
Частота : 48,0 КГц
Частота кадров : 31,250 кадров/сек (1536 SPF)
Битовая глубина : 16 бит
Метод сжатия : С потерями
Задержка видео : -40 мс.
Размер потока : 64,0 Мбайт (6%)
Язык : unknown
ServiceKind/String : Complete Main
Default : Да
Forced : Нет

Информация о торренте:
Размер содержимого: 4.3 GB
Скачан: 200 раз
Статус: Проверен
Зарегистрирован на трекере: 2018-11-02 08:07
Скачать торрент


Поддержи раздачу — поставь лайк:
BLIZNEC W
2018-11-02 08:07
Интересного и приятного просмотра!!!

Мои раздачи
Писать комментарии на нашем торрент-трекере могут только зарегистрированные пользователи.
Зарегистрируйтесь или авторизируйтесь на сайте.