»
»

Скачать сериал Миднайт, Техас, 2 сезон 1-2 серии из 9 / Midnight, Texas [IdeaFilm] (Тим Эндрю) [2018, фэнтези, драма, детектив, WEB-DLRip, Р] - торрент

Скачать сериал бесплатно через торрент. Сериал доступен на нашем торрент-трекере бесплатно, без регистрации и смс.

Статистика раздачи
1 [ 0 b/s ] ↑ 1.3 GB ↓ 1 [ 0 b/s ]
Автор Сообщение
D4IVER
2018-10-27 18:26
Миднайт, Техас / Midnight, Texas
Миднайт, Техас, 2 сезон 1-2 серии из 9 / Midnight, Texas [IdeaFilm]
Перевод: Профессиональный (многоголосый, закадровый) IdeaFilm
Субтитры: отсутствуют
Формат: WEB-DLRip, AVI, XviD, AC3
Страна: США
Режиссер: Тим Эндрю
Жанр: фэнтези, драма, детектив
Всего серий: 9
Продолжительность: 2 х ~ 00:44:00
Год выпуска: 2018

В ролях: Франсуа Арно, Дилан Брюс, Париса Фитц-Хенли, Ариэль Кеббел, Джейсон Льюис, Питер Менса, Сара Рамос, Юл Васкес, Джоэнн Кэмп, Челси Эдмундсон

Описание: События мистической драмы развернутся в маленьком техасском городке Миднайт, ставшем безопасным пристанищем для вампиров, ведьм, экстрасенсов, киллеров и всех прочих, кто отличается от обычных людей. Всех их, включая ясновидцев, телепатов, ангелов с крыльями и прочую нечисть сослали в техасскую дыру, где они вынуждены сосуществовать в мире и согласии. Но однажды там происходит самое настоящее убийство, и теперь главному герою Манфреду предстоит разобраться, что случилось, и по возможности сохранить как мир, так и согласие.

[imdb=http://www.imdb.com/title/tt5464086/]

Видео: 720x400 (16:9), 23.976 fps, XviD MPEG-4 ~1777 kbps avg, 0.257 bit/pixel
Аудио #1 Rus: 48 kHz, AC3 Dolby Digital, 3/2 (L,C,R,l,r) + LFE ch, ~384 kbps

Внимание, присутствует реклама!
Раздача ведется путем добавления новых серий.

Добавлена 2 серия.

Внимание! Раздача ведётся путём добавления новых серий

Внимание! Раздача ведётся путём добавления новых серий; при каждом добавлении создаётся новый торрент. Чтобы начать докачку новой серии, пользователям необходимо сделать следующее:
(1) остановить скачивание,
(2) удалить старый торрент у себя из клиента (старые серии удалять не надо),
(3) скачать новый торрент и запустить его у себя в клиенте вместо старого, при этом указать клиенту путь в старую папку куда и должно происходить скачивание новых серий.

Ваш клиент при этом должен произвести хеширование (проверку) старой папки (если не производит сам - помогите ему сделать это), и будет докачивать только те серии которых у вас ещё нет. Старые серии при этом не удаляются, а продолжают раздаваться!

Eсли вы уже удалили старые серии, то предотвратить повторную закачку старых серий можно, отжав галочку в соответствующих местах при запуске нового торрента. По возможности, желательно не удалять старые серии как можно дольше, чтобы релизёр не столько продолжал раздавать старые серии, а смог сконцентрироваться на новых.
MediaInfo

Video
ID : 0
Format : MPEG-4 Visual
Format profile : Advanced Simple@L5
Format settings : BVOP2
Format settings, BVOP : 2
Format settings, QPel : No
Format settings, GMC : No warppoints
Format settings, Matrix : Default (H.263)
Muxing mode : Packed bitstream
Codec ID : XVID
Codec ID/Hint : XviD
Duration : 43 min 35 s
Bit rate : 1 777 kb/s
Width : 720 pixels
Height : 400 pixels
Display aspect ratio : 16:9
Frame rate : 23.976 (24000/1001) FPS
Color space : YUV
Chroma subsampling : 4:2:0
Bit depth : 8 bits
Scan type : Progressive
Compression mode : Lossy
Bits/(Pixel*Frame) : 0.257
Stream size : 554 MiB (82%)
Writing library : XviD 67

Audio
ID : 1
Format : AC-3
Format/Info : Audio Coding 3
Commercial name : Dolby Digital
Codec ID : 2000
Duration : 43 min 35 s
Bit rate mode : Constant
Bit rate : 384 kb/s
Channel(s) : 6 channels
Channel positions : Front: L C R, Side: L R, LFE
Sampling rate : 48.0 kHz
Frame rate : 31.250 FPS (1536 SPF)
Bit depth : 16 bits
Compression mode : Lossy
Stream size : 120 MiB (18%)
Alignment : Aligned on interleaves
Interleave, duration : 42 ms (1.00 video frame)
Interleave, preload duratio : 512 ms
Service kind : Complete Main

Информация о торренте:
Размер содержимого: 1.3 GB
Скачан: 256 раз
Статус: Обновляемая раздача
Зарегистрирован на трекере: 2018-11-06 21:47
Скачать торрент


Поддержи раздачу — поставь лайк:
E-mail:
* Это обновляемая раздача и мы можем вас информировать об обновлении торрента в ней.

Писать комментарии на нашем торрент-трекере могут только зарегистрированные пользователи.
Зарегистрируйтесь или авторизируйтесь на сайте.