»
»

Скачать фильм Непрощенный (Сарик Андреасян) / [2018, драма, WEB-DLRip-AVC] - торрент

Скачать фильм через торрент бесплатно. Фильм доступен на нашем торрент-трекере бесплатно, без регистрации и смс.

Статистика раздачи
52 [ 110.0 KB/s ] ↑ 1.4 GB ↓ 0 [ 0 b/s ]
Автор Сообщение
BLIZNEC W
2018-10-27 11:05
Непрощенный
Непрощенный Субтитры: Русские (хардсаб на английскую речь)
Формат: WEB-DLRip-AVC, MKV, H.264, AC3
Режиссер: Сарик Андреасян
Жанр: драма
Продолжительность: 01:44:14
Год выпуска: 2018

В ролях: Дмитрий Нагиев, Марджан Аветисян, Самвел Мужикян, Роза Хайруллина, Карина Каграманян, Артём Шкляев, Михаил Горевой, Ирина Безрукова, Вадим Цаллати, Себастьян Сисак, Андрюс Паулавичюс, Микаэл Джанибекян, Оливье Сиу

Описание: Жизнь для инженера-строителя Виталия Калоева остановилась в ту самую секунду, когда самолет "Башкирских авиалиний", в котором летели его жена и дети, столкнулся над Боденским озером с транспортным самолетом. Не дождавшись семьи в аэропорту Барселоны, Виталий отправляется на место катастрофы — и находит их тела. Калоев теряет все, ради чего он жил. Теперь его некогда наполненный детским смехом дом — кладбище. Виталий ищет диспетчера, по вине которого погибла его семья, он хочет услышать слова извинения... Фильм основан на реальных событиях.

Рейтинг и доп. информация:


Видео: 720x302 (2.40:1 ), 25 fps, AVC MPEG-4 (x264), High@L4.1 ~ 1603 kbps , 0.295 bit/pixel
Аудио: 48 kHz, AC3 Dolby Digital, 3/2 (L,C,R,l,r) + LFE ch, ~384 kbps
MediaInfo
Общее
Уникальный идентификатор : 225318754106972960305899376741246071056 (0xA982D0453FE2E9D8A5125B52AF5C7110)
Полное имя : C:\\Neproschenniy.2018.WEB-DLRip.AVC.ExKinoRay.mkv
Формат : Matroska
Версия формата : Version 2
Размер файла : 1,45 Гбайт
Продолжительность : 1 ч. 44 м.
Общий поток : 1988 Кбит/сек
Название фильма : Непрощенный (2018) from ExKinoRay
Дата кодирования : UTC 2018-10-27 05:07:51
Программа кодирования : mkvmerge v5.6.0 ('Kenya Kane') built on May 27 2012 16:44:04
Библиотека кодирования : libebml v1.2.3 + libmatroska v1.3.0

Видео
Идентификатор : 1
Формат : AVC
Формат/Информация : Advanced Video Codec
Профиль формата : High@L4.1
Настройки формата : CABAC / 11 Ref Frames
Параметр CABAC формата : Да
Параметр RefFrames формата : 11 кадров
Идентификатор кодека : V_MPEG4/ISO/AVC
Продолжительность : 1 ч. 44 м.
Битрейт : 1603 Кбит/сек
Ширина : 720 пикселей
Высота : 302 пикселя
Соотношение сторон : 2,40:1
Режим частоты кадров : Постоянный
Частота кадров : 25,000 кадров/сек
Цветовое пространство : YUV
Субдискретизация насыщенности : 4:2:0
Битовая глубина : 8 бит
Тип развёртки : Прогрессивная
Бит/(Пиксели*Кадры) : 0.295
Размер потока : 1,14 Гбайт (79%)
Заголовок : Enigma
Библиотека кодирования : x264 core 152 r2851 ba24899
Настройки программы : cabac=1 / ref=11 / deblock=1:-2:-2 / analyse=0x3:0x113 / me=umh / subme=10 / psy=1 / psy_rd=1.03:0.10 / mixed_ref=1 / me_range=32 / chroma_me=1 / trellis=2 / 8x8dct=1 / cqm=0 / deadzone=21,11 / fast_pskip=0 / chroma_qp_offset=-3 / threads=9 / lookahead_threads=2 / sliced_threads=0 / nr=0 / decimate=0 / interlaced=0 / bluray_compat=0 / constrained_intra=0 / bframes=10 / b_pyramid=2 / b_adapt=2 / b_bias=0 / direct=3 / weightb=1 / open_gop=0 / weightp=2 / keyint=250 / keyint_min=25 / scenecut=40 / intra_refresh=0 / rc=2pass / mbtree=0 / bitrate=1603 / ratetol=1.0 / qcomp=0.60 / qpmin=0 / qpmax=51 / qpstep=4 / cplxblur=20.0 / qblur=0.5 / ip_ratio=1.40 / pb_ratio=1.30 / aq=1:1.00
Default : Да
Forced : Нет
Цветовой диапазон : Limited
Основные цвета : BT.709
Характеристики трансфера : BT.709
Коэффициенты матрицы : BT.709

Аудио
Идентификатор : 2
Формат : AC-3
Формат/Информация : Audio Coding 3
Коммерческое название : Dolby Digital
Идентификатор кодека : A_AC3
Продолжительность : 1 ч. 44 м.
Вид битрейта : Постоянный
Битрейт : 384 Кбит/сек
Каналы : 6 каналов
Channel layout : L R C LFE Ls Rs
Частота : 48,0 КГц
Частота кадров : 31,250 кадров/сек (1536 SPF)
Битовая глубина : 16 бит
Метод сжатия : С потерями
Размер потока : 286 Мбайт (19%)
Заголовок : iTunes
Язык : Russian
ServiceKind/String : Complete Main
Default : Да
Forced : Нет

Информация о торренте:
Размер содержимого: 1.4 GB
Скачан: 642 раза
Статус: Проверен
Зарегистрирован на трекере: 2018-10-27 10:05
Скачать торрент


Поддержи раздачу — поставь лайк:
BLIZNEC W
2018-10-27 10:07
Интересного и приятного просмотра!!!

Мои раздачи
rdv
2018-10-28 21:10
С америкосовским не сравнить-ибо тот говно полное.
liudochka
2018-11-04 06:13
Мне фильм понравился. Нагиев хорош.
Писать комментарии на нашем торрент-трекере могут только зарегистрированные пользователи.
Зарегистрируйтесь или авторизируйтесь на сайте.