»
»

Скачать мультфильм Разочарование, 1 сезон 1-10 серии из 10 / Disenchantment [NewStation] (Мэтт Грейнинг) [2018, Мультсериал, фэнтези, комедия, приключения, WEB-DL 1080p] MVO + Original + RUS, ENG Sub - торрент

Скачать бесплатный торрент мультфильм. Мультфильм доступен на нашем торрент-трекере бесплатно, без регистрации и смс.

Статистика раздачи
2 [ 220.0 KB/s ] ↑ 11.4 GB ↓ 1 [ 0 b/s ]
Автор Сообщение
NewSation
2018-10-26 20:17
Разочарование / Disenchantment
Разочарование, 1 сезон 1-10 серии из 10 / Disenchantment [NewStation] Перевод: Любительский (многоголосый), [NewStation]

Субтитры: Английские, русские

Формат: WEB-DL 1080p, MKV, H.264, AC3
Страна: США
Режиссер: Мэтт Грейнинг
Жанр: Мультсериал, фэнтези, комедия, приключения

Продолжительность: 10 x ~00:25:00
Год выпуска: 2018
В ролях: Эрик Андре, Мэтт Берри, Джон Ди Маджио, Нат Факсон, Ноэль Филдинг, Дэвид Херман, Эбби Джейкобсон, Морис ЛаМарш, Тресс МакНилл, Билли Уэст

Описание: Действие разворачивается в Средневековье в королевстве Дримландия, где живёт юная принцесса-алкоголичка Бин. Отказавшись выходить замуж, Бин отправляется в путешествие по стране в компании эльфа и демона. По дороге трио встретит множество фантастических тварей и дураков людского происхождения.

[imdb=https://www.imdb.com/title/tt5363918/?ref_=plg_rt_1]

Видео: 1920x1080 (16:9), 24 fps, AVC (х264) High@L4, ~5620 kbps, 0.113 bit/pixel
Аудио #1: Русский: 48 kHz, AC3 Dolby Digital, 3/2 (L,C,R,l,r) + LFE ch, ~640 kbps
Аудио #1: Английский: 48 kHz, EAC3 Dolby Digital, 3/2 (L,C,R,l,r) + LFE ch, ~640 kbps

Реклама: Отсутствует

MediaInfo
Общее
Уникальный идентификатор : 307723488903739853590944470685825277371 (0xE78163603ADE58C4DD17D2365FFA9DBB)
Полное имя : F:\NewStation\Disenchantment.S01.WEB-DL.1080p.NewStation\Disenchantment.S01E01.WEB-DL.1080p.NewStation.mkv
Формат : Matroska
Версия формата : Version 4 / Version 2
Размер файла : 1,69 Гбайт
Продолжительность : 36 м. 10 с.
Режим общего битрейта : Переменный
Общий поток : 6677 Кбит/сек
Дата кодирования : UTC 2018-09-12 19:16:57
Программа кодирования : mkvmerge v25.0.0 ('Prog Noir') 64-bit
Библиотека кодирования : libebml v1.3.6 + libmatroska v1.4.9

Видео
Идентификатор : 1
Формат : AVC
Формат/Информация : Advanced Video Codec
Профиль формата : Main@L4
Настройки формата : CABAC / 3 Ref Frames
Параметр CABAC формата : Да
Параметр RefFrames формата : 3 кадра
Идентификатор кодека : V_MPEG4/ISO/AVC
Продолжительность : 36 м. 10 с.
Вид битрейта : Переменный
Битрейт : 5620 Кбит/сек
Максимальный битрейт : 8430 Кбит/сек
Ширина : 1920 пикселей
Высота : 1080 пикселей
Соотношение сторон : 16:9
Режим частоты кадров : Постоянный
Частота кадров : 23,976 (24000/1001) кадра/сек
Цветовое пространство : YUV
Субдискретизация насыщенности : 4:2:0
Битовая глубина : 8 бит
Тип развёртки : Прогрессивная
Бит/(Пиксели*Кадры) : 0.113
Размер потока : 1,36 Гбайт (81%)
Библиотека кодирования : x264 core 148 r2715 7e75228
Настройки программы : cabac=1 / ref=3 / deblock=1:0:0 / analyse=0x1:0x111 / me=umh / subme=10 / psy=1 / psy_rd=1.00:0.00 / mixed_ref=1 / me_range=24 / chroma_me=1 / trellis=2 / 8x8dct=0 / cqm=0 / deadzone=21,11 / fast_pskip=1 / chroma_qp_offset=-2 / threads=8 / lookahead_threads=1 / sliced_threads=0 / nr=0 / decimate=1 / interlaced=0 / bluray_compat=0 / stitchable=1 / constrained_intra=0 / bframes=2 / b_pyramid=0 / b_adapt=2 / b_bias=0 / direct=3 / weightb=1 / open_gop=0 / weightp=2 / keyint=48 / keyint_min=25 / scenecut=0 / intra_refresh=0 / rc_lookahead=48 / rc=2pass / mbtree=1 / bitrate=5620 / ratetol=1.0 / qcomp=0.50 / qpmin=6 / qpmax=51 / qpstep=4 / cplxblur=20.0 / qblur=0.5 / vbv_maxrate=8430 / vbv_bufsize=11240 / nal_hrd=vbr / filler=0 / ip_ratio=1.40 / aq=1:1.00
Default : Да
Forced : Нет

Аудио #1
Идентификатор : 2
Формат : AC-3
Формат/Информация : Audio Coding 3
Идентификатор кодека : A_AC3
Продолжительность : 36 м. 10 с.
Вид битрейта : Постоянный
Битрейт : 640 Кбит/сек
Каналы : 6 каналов
Расположение каналов : Front: L C R, Side: L R, LFE
Частота : 48,0 КГц
Частота кадров : 31,250 кадров/сек (1536 SPF)
Битовая глубина : 16 бит
Метод сжатия : С потерями
Размер потока : 166 Мбайт (10%)
Заголовок : NewStation
Язык : Russian
ServiceKind/String : Complete Main
Default : Да
Forced : Нет

Аудио #2
Идентификатор : 3
Формат : E-AC-3
Формат/Информация : Enhanced Audio Coding 3
Идентификатор кодека : A_EAC3
Продолжительность : 36 м. 10 с.
Вид битрейта : Постоянный
Битрейт : 640 Кбит/сек
Каналы : 6 каналов
Расположение каналов : Front: L C R, Side: L R, LFE
Частота : 48,0 КГц
Частота кадров : 187,500 кадров/сек (256 SPF)
Метод сжатия : С потерями
Размер потока : 166 Мбайт (10%)
Заголовок : English
ServiceKind/String : Complete Main
Default : Нет
Forced : Нет

Текст #1
Идентификатор : 4
Формат : UTF-8
Идентификатор кодека : S_TEXT/UTF8
Идентификатор кодека/Информация : UTF-8 Plain Text
Продолжительность : 33 м. 58 с.
Битрейт : 69 бит/сек
ElementCount : 534
Размер потока : 17,4 Кбайт (0%)
Заголовок : SDH
Язык : English
Default : Да
Forced : Нет

Текст #2
Идентификатор : 5
Формат : UTF-8
Идентификатор кодека : S_TEXT/UTF8
Идентификатор кодека/Информация : UTF-8 Plain Text
Продолжительность : 33 м. 57 с.
Битрейт : 102 бит/сек
ElementCount : 414
Размер потока : 25,6 Кбайт (0%)
Язык : Arabic
Default : Нет
Forced : Нет

Текст #3
Идентификатор : 6
Формат : UTF-8
Идентификатор кодека : S_TEXT/UTF8
Идентификатор кодека/Информация : UTF-8 Plain Text
Продолжительность : 33 м. 57 с.
Битрейт : 58 бит/сек
ElementCount : 411
Размер потока : 14,5 Кбайт (0%)
Язык : Danish
Default : Нет
Forced : Нет

Текст #4
Идентификатор : 7
Формат : UTF-8
Идентификатор кодека : S_TEXT/UTF8
Идентификатор кодека/Информация : UTF-8 Plain Text
Продолжительность : 33 м. 57 с.
Битрейт : 62 бит/сек
ElementCount : 414
Размер потока : 15,5 Кбайт (0%)
Язык : German
Default : Нет
Forced : Нет

Текст #5
Идентификатор : 8
Формат : UTF-8
Идентификатор кодека : S_TEXT/UTF8
Идентификатор кодека/Информация : UTF-8 Plain Text
Продолжительность : 33 м. 57 с.
Битрейт : 106 бит/сек
ElementCount : 414
Размер потока : 26,5 Кбайт (0%)
Язык : Greek
Default : Нет
Forced : Нет

Текст #6
Идентификатор : 9
Формат : UTF-8
Идентификатор кодека : S_TEXT/UTF8
Идентификатор кодека/Информация : UTF-8 Plain Text
Продолжительность : 33 м. 57 с.
Битрейт : 59 бит/сек
ElementCount : 417
Размер потока : 14,9 Кбайт (0%)
Язык : Spanish
Default : Нет
Forced : Нет

Текст #7
Идентификатор : 10
Формат : UTF-8
Идентификатор кодека : S_TEXT/UTF8
Идентификатор кодека/Информация : UTF-8 Plain Text
Продолжительность : 33 м. 57 с.
Битрейт : 60 бит/сек
ElementCount : 412
Размер потока : 15,1 Кбайт (0%)
Заголовок : European
Язык : Spanish
Default : Нет
Forced : Нет

Текст #8
Идентификатор : 11
Формат : UTF-8
Идентификатор кодека : S_TEXT/UTF8
Идентификатор кодека/Информация : UTF-8 Plain Text
Продолжительность : 33 м. 57 с.
Битрейт : 61 бит/сек
ElementCount : 379
Размер потока : 15,2 Кбайт (0%)
Язык : Finnish
Default : Нет
Forced : Нет

Текст #9
Идентификатор : 12
Формат : UTF-8
Идентификатор кодека : S_TEXT/UTF8
Идентификатор кодека/Информация : UTF-8 Plain Text
Продолжительность : 33 м. 57 с.
Битрейт : 60 бит/сек
ElementCount : 410
Размер потока : 15,0 Кбайт (0%)
Язык : French
Default : Нет
Forced : Нет

Текст #10
Идентификатор : 13
Формат : UTF-8
Идентификатор кодека : S_TEXT/UTF8
Идентификатор кодека/Информация : UTF-8 Plain Text
Продолжительность : 33 м. 57 с.
Битрейт : 95 бит/сек
ElementCount : 416
Размер потока : 23,6 Кбайт (0%)
Язык : Hebrew
Default : Нет
Forced : Нет

Текст #11
Идентификатор : 14
Формат : UTF-8
Идентификатор кодека : S_TEXT/UTF8
Идентификатор кодека/Информация : UTF-8 Plain Text
Продолжительность : 33 м. 57 с.
Битрейт : 58 бит/сек
ElementCount : 415
Размер потока : 14,5 Кбайт (0%)
Язык : Indonesian
Default : Нет
Forced : Нет

Текст #12
Идентификатор : 15
Формат : UTF-8
Идентификатор кодека : S_TEXT/UTF8
Идентификатор кодека/Информация : UTF-8 Plain Text
Продолжительность : 33 м. 57 с.
Битрейт : 60 бит/сек
ElementCount : 409
Размер потока : 15,1 Кбайт (0%)
Язык : Italian
Default : Нет
Forced : Нет

Текст #13
Идентификатор : 16
Формат : UTF-8
Идентификатор кодека : S_TEXT/UTF8
Идентификатор кодека/Информация : UTF-8 Plain Text
Продолжительность : 33 м. 57 с.
Битрейт : 55 бит/сек
ElementCount : 392
Размер потока : 13,8 Кбайт (0%)
Язык : Japanese
Default : Нет
Forced : Нет

Текст #14
Идентификатор : 17
Формат : UTF-8
Идентификатор кодека : S_TEXT/UTF8
Идентификатор кодека/Информация : UTF-8 Plain Text
Продолжительность : 33 м. 57 с.
Битрейт : 64 бит/сек
ElementCount : 417
Размер потока : 16,1 Кбайт (0%)
Язык : Korean
Default : Нет
Forced : Нет

Текст #15
Идентификатор : 18
Формат : UTF-8
Идентификатор кодека : S_TEXT/UTF8
Идентификатор кодека/Информация : UTF-8 Plain Text
Продолжительность : 33 м. 57 с.
Битрейт : 58 бит/сек
ElementCount : 388
Размер потока : 14,6 Кбайт (0%)
Язык : Norwegian Bokmal
Default : Нет
Forced : Нет

Текст #16
Идентификатор : 19
Формат : UTF-8
Идентификатор кодека : S_TEXT/UTF8
Идентификатор кодека/Информация : UTF-8 Plain Text
Продолжительность : 33 м. 57 с.
Битрейт : 58 бит/сек
ElementCount : 405
Размер потока : 14,5 Кбайт (0%)
Язык : Dutch
Default : Нет
Forced : Нет

Текст #17
Идентификатор : 20
Формат : UTF-8
Идентификатор кодека : S_TEXT/UTF8
Идентификатор кодека/Информация : UTF-8 Plain Text
Продолжительность : 33 м. 57 с.
Битрейт : 57 бит/сек
ElementCount : 415
Размер потока : 14,4 Кбайт (0%)
Язык : Polish
Default : Нет
Forced : Нет

Текст #18
Идентификатор : 21
Формат : UTF-8
Идентификатор кодека : S_TEXT/UTF8
Идентификатор кодека/Информация : UTF-8 Plain Text
Продолжительность : 33 м. 57 с.
Битрейт : 63 бит/сек
ElementCount : 397
Размер потока : 15,8 Кбайт (0%)
Язык : Portuguese
Default : Нет
Forced : Нет

Текст #19
Идентификатор : 22
Формат : UTF-8
Идентификатор кодека : S_TEXT/UTF8
Идентификатор кодека/Информация : UTF-8 Plain Text
Продолжительность : 33 м. 57 с.
Битрейт : 56 бит/сек
ElementCount : 413
Размер потока : 14,0 Кбайт (0%)
Заголовок : Brazilian
Язык : Portuguese
Default : Нет
Forced : Нет

Текст #20
Идентификатор : 23
Формат : UTF-8
Идентификатор кодека : S_TEXT/UTF8
Идентификатор кодека/Информация : UTF-8 Plain Text
Продолжительность : 33 м. 57 с.
Битрейт : 64 бит/сек
ElementCount : 415
Размер потока : 16,1 Кбайт (0%)
Язык : Romanian
Default : Нет
Forced : Нет

Текст #21
Идентификатор : 24
Формат : UTF-8
Идентификатор кодека : S_TEXT/UTF8
Идентификатор кодека/Информация : UTF-8 Plain Text
Продолжительность : 33 м. 57 с.
Битрейт : 98 бит/сек
ElementCount : 415
Размер потока : 24,4 Кбайт (0%)
Язык : Russian
Default : Нет
Forced : Нет

Текст #22
Идентификатор : 25
Формат : UTF-8
Идентификатор кодека : S_TEXT/UTF8
Идентификатор кодека/Информация : UTF-8 Plain Text
Продолжительность : 33 м. 57 с.
Битрейт : 60 бит/сек
ElementCount : 397
Размер потока : 15,2 Кбайт (0%)
Язык : Swedish
Default : Нет
Forced : Нет

Текст #23
Идентификатор : 26
Формат : UTF-8
Идентификатор кодека : S_TEXT/UTF8
Идентификатор кодека/Информация : UTF-8 Plain Text
Продолжительность : 33 м. 57 с.
Битрейт : 164 бит/сек
ElementCount : 415
Размер потока : 40,9 Кбайт (0%)
Язык : Thai
Default : Нет
Forced : Нет

Текст #24
Идентификатор : 27
Формат : UTF-8
Идентификатор кодека : S_TEXT/UTF8
Идентификатор кодека/Информация : UTF-8 Plain Text
Продолжительность : 33 м. 57 с.
Битрейт : 61 бит/сек
ElementCount : 414
Размер потока : 15,3 Кбайт (0%)
Язык : Turkish
Default : Нет
Forced : Нет

Текст #25
Идентификатор : 28
Формат : UTF-8
Идентификатор кодека : S_TEXT/UTF8
Идентификатор кодека/Информация : UTF-8 Plain Text
Продолжительность : 33 м. 57 с.
Битрейт : 74 бит/сек
ElementCount : 415
Размер потока : 18,4 Кбайт (0%)
Язык : Vietnamese
Default : Нет
Forced : Нет

Текст #26
Идентификатор : 29
Формат : UTF-8
Идентификатор кодека : S_TEXT/UTF8
Идентификатор кодека/Информация : UTF-8 Plain Text
Продолжительность : 33 м. 57 с.
Битрейт : 62 бит/сек
ElementCount : 415
Размер потока : 15,4 Кбайт (0%)
Заголовок : Simplified
Язык : Chinese
Default : Нет
Forced : Нет

Текст #27
Идентификатор : 30
Формат : UTF-8
Идентификатор кодека : S_TEXT/UTF8
Идентификатор кодека/Информация : UTF-8 Plain Text
Продолжительность : 33 м. 57 с.
Битрейт : 56 бит/сек
ElementCount : 415
Размер потока : 14,1 Кбайт (0%)
Заголовок : Traditional
Язык : Chinese
Default : Нет
Forced : Нет

Информация о торренте:
Размер содержимого: 11.4 GB
Скачан: 88 раз
Статус: Проверен
Зарегистрирован на трекере: 2018-10-26 19:17
Скачать торрент


Поддержи раздачу — поставь лайк:
Писать комментарии на нашем торрент-трекере могут только зарегистрированные пользователи.
Зарегистрируйтесь или авторизируйтесь на сайте.