»
»

Скачать мультфильм Царевна-лягушка / (Юрий Елисеев) [1971, мультфильм, короткометражка, DVDRip-AVC] - торрент

Скачать через торрент мультфильм вы можете, нажав на синюю кнопку. Мультфильм доступен на нашем торрент-трекере бесплатно, без регистрации и смс.

Статистика раздачи
1 [ 0 b/s ] ↑ 698.6 MB ↓ 0 [ 0 b/s ]
Автор Сообщение
Undertaker99
2018-10-22 09:55
Царевна-лягушка
Царевна-лягушка /  Формат: DVDRip-AVC, MKV, H.264, AC3
Режиссер: Юрий Елисеев
Жанр: мультфильм, короткометражка
Продолжительность: 00:29:33
Год выпуска: 1971

Описание: По спектаклю Ленинградского государственного кукольного театра. По мотивам одноимённой пьесы Нины Гернет, в основе - сюжет русской народной сказки.



Видео: 718x576@766x576 (4:3), 25 fps, AVC MPEG-4 (H.264), High@L4.1 ~3004 kbps, 0.291 bit/pixel
Аудио: 48 kHz, AC3 Dolby Digital, 2/0 (L,R) ch, ~192 kbps

Отчет MediaInfo
Формат : Matroska
Версия формата : Version 2
Размер файла : 699 Мбайт
Продолжительность : 29 м. 39 с.
Общий поток : 3293 Кбит/сек
Название фильма : Царевна-лягушка_1971-DVDRip-AVC_KORSAR
Дата кодирования : UTC 2018-10-12 00:21:18
Программа кодирования : mkvmerge v5.8.0 ('No Sleep / Pillow') built on Sep 2 2012 15:37:04
Библиотека кодирования : libebml v1.2.3 + libmatroska v1.3.0

Видео
Идентификатор : 1
Формат : AVC
Формат/Информация : Advanced Video Codec
Профиль формата : High@L4.1
Параметр CABAC формата : Да
Параметр RefFrames формата : 15 кадров
Идентификатор кодека : V_MPEG4/ISO/AVC
Продолжительность : 29 м. 39 с.
Битрейт : 3004 Кбит/сек
Ширина : 718 пикселей
Высота : 576 пикселей
Соотношение сторон : 4:3
Режим частоты кадров : Постоянный
Частота кадров : 25,000 кадров/сек
Цветовое пространство : YUV
Субдискретизация насыщенности : 4:2:0
Битовая глубина : 8 бит
Тип развёртки : Прогрессивная
Бит/(Пиксели*Кадры) : 0.291
Размер потока : 637 Мбайт (91%)
Библиотека кодирования : x264 core 152 r2851kMod ba24899
Настройки программы : cabac=1 / ref=15 / deblock=1:-2:-1 / analyse=0x3:0x133 / me=umh / subme=10 / psy=1 / fade_compensate=0.00 / psy_rd=1.05:0.10 / mixed_ref=1 / me_range=32 / chroma_me=1 / trellis=2 / 8x8dct=1 / cqm=0 / deadzone=21,11 / fast_pskip=1 / chroma_qp_offset=-3 / threads=12 / lookahead_threads=2 / sliced_threads=0 / nr=0 / decimate=1 / interlaced=0 / bluray_compat=0 / constrained_intra=0 / bframes=9 / b_pyramid=2 / b_adapt=2 / b_bias=0 / direct=1 / weightb=1 / open_gop=0 / weightp=2 / keyint=250 / keyint_min=25 / scenecut=40 / intra_refresh=0 / rc=crf / mbtree=0 / crf=18.2000 / qcomp=0.63 / qpmin=0 / qpmax=39 / qpstep=4 / ip_ratio=1.40 / pb_ratio=1.30 / aq=1:1.00
Язык : English
Default : Да
Forced : Нет
Цветовой диапазон : Limited
Основные цвета : BT.601 PAL
Характеристики трансфера : BT.470 System B, BT.470 System G
Коэффициенты матрицы : BT.601

Аудио
Идентификатор : 2
Формат : AC-3
Формат/Информация : Audio Coding 3
Параметр Endianness формата : Big
Идентификатор кодека : A_AC3
Продолжительность : 29 м. 39 с.
Вид битрейта : Постоянный
Битрейт : 224 Кбит/сек
Каналы : 2 канала
Расположение каналов : Front: L R
Частота : 48,0 КГц
Частота кадров : 31,250 кадров/сек (1536 SPF)
Битовая глубина : 16 бит
Метод сжатия : С потерями
Размер потока : 47,5 Мбайт (7%)
Язык : Russian
Default : Да
Forced : Нет

Информация о торренте:
Размер содержимого: 698.6 MB
Скачан: 108 раз
Статус: Проверен
Зарегистрирован на трекере: 2018-10-22 08:55
Скачать торрент


Поддержи раздачу — поставь лайк:
Писать комментарии на нашем торрент-трекере могут только зарегистрированные пользователи.
Зарегистрируйтесь или авторизируйтесь на сайте.