»
»

Скачать мультфильм Царевна-лягушка (Михаил Цехановский) / [1954, мультфильм, короткометражка, BDRip 720p] - торрент

Скачать мультфильм бесплатно через торрент. Мультфильм доступен на нашем торрент-трекере бесплатно, без регистрации и смс.

Статистика раздачи
3 [ 0 b/s ] ↑ 2.7 GB ↓ 0 [ 0 b/s ]
Автор Сообщение
Undertaker99
2018-10-20 22:41
Царевна-лягушка
Царевна-лягушка Формат: BDRip, MKV, H.264, AC3
Режиссер: Михаил Цехановский
Жанр: мультфильм, короткометражка
Продолжительность: 00:38:47
Год выпуска: 1954

В ролях: Маргарита Куприянова, Алексей Грибов, Георгий Милляр, Александр Румнев, Владимир Грибков, Борис Чирков, Анатолий Вербицкий

Описание: В некотором царстве, в некотором государстве жил-был царь. И задумал он женить своих сыновей. Решили они послать свои стрелы в разные стороны, какая куда попадет, там и невесту искать. Попала посланная Иваном-царевичем стрела на болотную кочку, где сидела лягушка…



Видео: 984x720p (4:3), 25 fps, AVC MPEG-4 (H.264), High@L4.1 ~9714 kbps, 0.548 bit/pixel
Аудио: 48 kHz, AC3 Dolby Digital, 2 ch, ~192 kbps

Отчет MediaInfo
Формат : Matroska
Версия формата : Version 2
Размер файла : 2,74 Гбайт
Продолжительность : 38 м. 47 с.
Общий поток : 10,1 Мбит/сек
Название фильма : Царевна-лягушка_1954-BDRip 720p_KORSAR
Дата кодирования : UTC 2018-10-19 20:03:49
Программа кодирования : mkvmerge v5.8.0 ('No Sleep / Pillow') built on Sep 2 2012 15:37:04
Библиотека кодирования : libebml v1.2.3 + libmatroska v1.3.0

Видео
Идентификатор : 1
Формат : AVC
Формат/Информация : Advanced Video Codec
Профиль формата : High@L4.1
Параметр CABAC формата : Да
Параметр RefFrames формата : 11 кадров
Идентификатор кодека : V_MPEG4/ISO/AVC
Продолжительность : 38 м. 47 с.
Битрейт : 9714 Кбит/сек
Ширина : 984 пикселя
Высота : 720 пикселей
Соотношение сторон : 4:3
Режим частоты кадров : Постоянный
Частота кадров : 25,000 кадров/сек
Цветовое пространство : YUV
Субдискретизация насыщенности : 4:2:0
Битовая глубина : 8 бит
Тип развёртки : Прогрессивная
Бит/(Пиксели*Кадры) : 0.548
Размер потока : 2,63 Гбайт (96%)
Библиотека кодирования : x264 core 152 r2851kMod ba24899
Настройки программы : cabac=1 / ref=11 / deblock=1:-2:-2 / analyse=0x3:0x113 / me=umh / subme=10 / psy=1 / fade_compensate=0.00 / psy_rd=1.05:0.10 / mixed_ref=1 / me_range=40 / chroma_me=1 / trellis=2 / 8x8dct=1 / cqm=0 / deadzone=21,11 / fast_pskip=1 / chroma_qp_offset=-3 / threads=12 / lookahead_threads=3 / sliced_threads=0 / nr=0 / decimate=1 / interlaced=0 / bluray_compat=0 / constrained_intra=0 / bframes=16 / b_pyramid=2 / b_adapt=2 / b_bias=0 / direct=1 / weightb=1 / open_gop=0 / weightp=2 / keyint=250 / keyint_min=25 / scenecut=40 / intra_refresh=0 / rc=crf / mbtree=0 / crf=17.7000 / qcomp=0.63 / qpmin=0 / qpmax=45 / qpstep=4 / ip_ratio=1.40 / pb_ratio=1.30 / aq=2:0.93
Язык : English
Default : Да
Forced : Нет
Цветовой диапазон : Limited
Основные цвета : BT.709
Характеристики трансфера : BT.709
Коэффициенты матрицы : BT.709

Аудио
Идентификатор : 2
Формат : AC-3
Формат/Информация : Audio Coding 3
Параметр Endianness формата : Big
Идентификатор кодека : A_AC3
Продолжительность : 38 м. 47 с.
Вид битрейта : Постоянный
Битрейт : 192 Кбит/сек
Каналы : 2 канала
Расположение каналов : Front: L R
Частота : 48,0 КГц
Частота кадров : 31,250 кадров/сек (1536 SPF)
Битовая глубина : 16 бит
Метод сжатия : С потерями
Размер потока : 53,3 Мбайт (2%)
Язык : Russian
ServiceKind : Complete Main
Default : Да
Forced : Нет

Информация о торренте:
Размер содержимого: 2.7 GB
Скачан: 77 раз
Статус: Проверен
Зарегистрирован на трекере: 2018-10-20 21:41
Скачать торрент


Поддержи раздачу — поставь лайк:
Писать комментарии на нашем торрент-трекере могут только зарегистрированные пользователи.
Зарегистрируйтесь или авторизируйтесь на сайте.