»
»

Скачать сериал Настоящий американец, 1 сезон 1-4 серия из 13 / All American [IdeaFilm] (Роб Харди, Дэвид МакУиртер) [2018, Драма, спорт, WEBRip 1080p, P] - торрент

Бесплатные торренты всегда на нашем сайте и в хорошем качестве! Сериал доступен на нашем торрент-трекере бесплатно, без регистрации и смс.

Статистика раздачи
0 [ 0 b/s ] ↑ 9.2 GB ↓ 5 [ 0 b/s ]
Автор Сообщение
IdeaFilm
2018-10-16 15:08
Настоящий американец / All American
Настоящий американец, 1 сезон 1-4 серия из 13 / All American [IdeaFilm] Перевод: Профессиональный (многоголосый, закадровый) IdeaFilm
Субтитры: отсутствуют
Формат: WEBRip, MKV, h.264, AC3
Страна: США
Режиссер: Роб Харди, Дэвид МакУиртер
Жанр: Драма, спорт
Всего серий: 13
Продолжительность: 4 х ~00:45:00
Год выпуска: 2018

В ролях: Daniel Ezra, Jalyn Hall, Тэй Диггз, Грета Онейогоу, Саманта Логан, Коди Кристиан, Карима Уэстбрук, Монит Мазур, Джордан Бэлфи, Бриана Лэйн

Описание: Сюжет сериала основан на главных этапах жизни и карьеры выдающегося спортсмена, игрока в американский футбол Спенсера Пейсингера. Этот человек провел славную карьеру и стал настоящей живой легендой спорта. Когда-то давно он начинал свой путь к вершинам. Главный герой этого сериала - юный футболист, который прибыл в школу в Беверли Хиллз с юга, из Лос-Анджелеса. Он мечтает начать полупрофессиональную карьеру,чтобы в будущем претендовать на попадание в серьезную команду и игру на высочайшем уровне. Однако герою предстоит пройти непростой путь, на котором будут как победы, так и поражения.

Рейтинг на: [imdb=http://www.imdb.com/title/tt7414406/]

Видео: 1920x960 (2.00:1), 23,976 fps, AVC (х264), Main@L4.1, ~6937 kbps avg, 0.157 bit/pixel
Аудио #1 Rus: :48 kHz, AC3 Dolby Digital, 3/2 (L,C,R,l,r) + LFE ch, ~384 kbps
Аудио #1 Eng: :48 kHz, AC3 Dolby Digital, 3/2 (L,C,R,l,r) + LFE ch, ~384 kbps

Внимание, присутствует реклама!

Внимание! Раздача ведётся путём добавления новых серий

Внимание! Раздача ведётся путём добавления новых серий; при каждом добавлении создаётся новый торрент. Чтобы начать докачку новой серии, пользователям необходимо сделать следующее:
(1) остановить скачивание,
(2) удалить старый торрент у себя из клиента (старые серии удалять не надо),
(3) скачать новый торрент и запустить его у себя в клиенте вместо старого, при этом указать клиенту путь в старую папку куда и должно происходить скачивание новых серий.

Ваш клиент при этом должен произвести хеширование (проверку) старой папки (если не производит сам - помогите ему сделать это), и будет докачивать только те серии которых у вас ещё нет. Старые серии при этом не удаляются, а продолжают раздаваться!

Eсли вы уже удалили старые серии, то предотвратить повторную закачку старых серий можно, отжав галочку в соответствующих местах при запуске нового торрента. По возможности, желательно не удалять старые серии как можно дольше, чтобы релизёр не столько продолжал раздавать старые серии, а смог сконцентрироваться на новых.
MediaInfo

Общее
Уникальный идентификатор : 224043063849421644733463625593500347658 (0xA88D1FE28205AFC5912FB94A9A322D0A)
Полное имя : K:\IdeaFilm\All.American.S01.WEBRip.1080p\All.American.S01E01.WEBRip.1080p-IdeaFilm.mkv
Формат : Matroska
Версия формата : Version 4 / Version 2
Размер файла : 2,31 Гбайт
Продолжительность : 42 м. 54 с.
Общий поток : 7702 Кбит/сек
Дата кодирования : UTC 2018-10-16 10:28:17
Программа кодирования : mkvmerge v12.0.0 ('Trust / Lust') 64bit
Библиотека кодирования : libebml v1.3.4 + libmatroska v1.4.5

Видео
Идентификатор : 1
Формат : AVC
Формат/Информация : Advanced Video Codec
Профиль формата : Main@L4.1
Настройки формата : CABAC / 4 Ref Frames
Параметр CABAC формата : Да
Параметр RefFrames формата : 4 кадра
Идентификатор кодека : V_MPEG4/ISO/AVC
Продолжительность : 42 м. 54 с.
Битрейт : 6937 Кбит/сек
Ширина : 1920 пикселей
Высота : 960 пикселей
Соотношение сторон : 2,000
Режим частоты кадров : Постоянный
Частота кадров : 23,976 (24000/1001) кадра/сек
Стандарт вещания : NTSC
Цветовое пространство : YUV
Субдискретизация насыщенности : 4:2:0
Битовая глубина : 8 бит
Тип развёртки : Прогрессивная
Бит/(Пиксели*Кадры) : 0.157
Размер потока : 2,08 Гбайт (90%)
Язык : English
Default : Да
Forced : Нет
Цветовой диапазон : Limited
Основные цвета : BT.709
Характеристики трансфера : BT.709
Коэффициенты матрицы : BT.709

Аудио #1
Идентификатор : 2
Формат : AC-3
Формат/Информация : Audio Coding 3
Идентификатор кодека : A_AC3
Продолжительность : 42 м. 54 с.
Вид битрейта : Постоянный
Битрейт : 384 Кбит/сек
Каналы : 6 каналов
Расположение каналов : Front: L C R, Side: L R, LFE
Частота : 48,0 КГц
Частота кадров : 31,250 кадров/сек (1536 SPF)
Битовая глубина : 16 бит
Метод сжатия : С потерями
Размер потока : 118 Мбайт (5%)
Заголовок : IdeaFilm
Язык : Russian
ServiceKind/String : Complete Main
Default : Да
Forced : Нет

Аудио #2
Идентификатор : 3
Формат : AC-3
Формат/Информация : Audio Coding 3
Идентификатор кодека : A_AC3
Продолжительность : 42 м. 14 с.
Битрейт : 384 Кбит/сек
Каналы : 6 каналов
Частота : 48,0 КГц
Частота кадров : 31,250 кадров/сек (1536 SPF)
Метод сжатия : С потерями
Размер потока : 116 Мбайт (5%)
Язык : English
Default : Нет
Forced : Нет

Информация о торренте:
Размер содержимого: 9.2 GB
Скачан: 469 раз
Статус: Обновляемая раздача
Зарегистрирован на трекере: 2018-11-15 00:12
Скачать торрент


Поддержи раздачу — поставь лайк:
E-mail:
* Это обновляемая раздача и мы можем вас информировать об обновлении торрента в ней.

Писать комментарии на нашем торрент-трекере могут только зарегистрированные пользователи.
Зарегистрируйтесь или авторизируйтесь на сайте.