»
»

Скачать фильм Этим пыльным летом (1-4 серии из 4) (Наталья Хлопецкая) / [2018, триллер, детектив, драма, SATRip-AVC] - торрент

Нажмите на синюю кнопку ниже, чтобы скачать фильм бесплатно через торрент. Фильм доступен на нашем торрент-трекере бесплатно, без регистрации и смс.

Статистика раздачи
4 [ 0 b/s ] ↑ 2.3 GB ↓ 0 [ 0 b/s ]
Автор Сообщение
BLIZNEC W
2018-10-13 19:56
Этим пыльным летом (1-4 серии из 4)
Этим пыльным летом Формат: SATRip-AVC, MKV, H.264, AC3
Режиссер: Наталья Хлопецкая
Жанр: триллер, детектив, драма
Продолжительность: 4 ~ 00:44:00
Год выпуска: 2018

В ролях: Вадим Андреев, Ольга Виниченко, Сергей Жарков, Дмитрий Калязин, Вера Воронкова, Юлия Кокрятская, Евгения Розанова, Сергей Петров (II), Сергей Галахов

Описание: Пожилой таксист Макарыч неожиданно становится главным подозреваемым по делу об убийстве политика Ремезова, кандидата на пост мэра их городка. У Макарыча двое взрослых детей, и каждый из них стремится доказать невиновность отца. Старший сын Влад – сотрудник местного ФСБ, его отстраняют от официального расследования, но остаться в стороне он не может. Младшая дочь Тина пытается докопаться до правды со своей стороны: она участвует в боях без правил и вращается в околокриминальных кругах. Беда в том, что дети Макарыча давно не разговаривают друг с другом, а потому не могут объединить усилия. Мало того, со временем Влад начинает подозревать, что его отец не так чист, как ему казалось. А Тина начинает подозревать Влада…

Рейтинг и доп. информация:


Видео: 720х400 (16:9), 25 fps, AVC MPEG-4 (x264), High@L4.1 ~ 1700 kbps , 0.236 bit/pixel
Аудио: 48 kHz, AC3, 2/0 (L,R) ch, ~192 kbps
MediaInfo
Общее
Уникальный идентификатор : 197918895968792078296276223718614746971 (0x94E5CAF6F2D4641D98A4129EAAF1C75B)
Полное имя : D:Этим пыльным летом�2 серия_Этим пыльным летом_rip by_Aleksan55.mkv
Формат : Matroska
Версия формата : Version 2
Размер файла : 599 Мбайт
Продолжительность : 44 м. 11 с.
Общий поток : 1894 Кбит/сек
Дата кодирования : UTC 2018-10-13 10:11:18
Программа кодирования : mkvmerge v7.8.0 ('River Man') 32bit built on Apr 3 2015 12:11:22
Библиотека кодирования : libebml v1.3.1 + libmatroska v1.4.2

Видео
Идентификатор : 1
Формат : AVC
Формат/Информация : Advanced Video Codec
Профиль формата : High@L4.1
Параметр CABAC формата : Да
Параметр ReFrames формата : 14 кадров
Идентификатор кодека : V_MPEG4/ISO/AVC
Продолжительность : 44 м. 11 с.
Битрейт : 1700 Кбит/сек
Ширина : 720 пикселей
Высота : 400 пикселей
Соотношение сторон : 16:9
Режим частоты кадров : Постоянный
Частота кадров : 25,000 кадров/сек
Цветовое пространство : YUV
Субдискретизация насыщенности : 4:2:0
Битовая глубина : 8 бит
Тип развёртки : Прогрессивная
Бит/(Пиксели*Кадры) : 0.236
Размер потока : 526 Мбайт (88%)
Библиотека кодирования : x264 core 146 r2538 121396c
Настройки программы : cabac=1 / ref=14 / deblock=1:-1:-1 / analyse=0x3:0x133 / me=umh / subme=9 / psy=1 / psy_rd=0.90:0.00 / mixed_ref=0 / me_range=32 / chroma_me=1 / trellis=1 / 8x8dct=1 / cqm=0 / deadzone=21,11 / fast_pskip=0 / chroma_qp_offset=-2 / threads=12 / lookahead_threads=1 / sliced_threads=0 / nr=0 / decimate=0 / interlaced=0 / bluray_compat=0 / constrained_intra=0 / bframes=14 / b_pyramid=2 / b_adapt=1 / b_bias=0 / direct=3 / weightb=1 / open_gop=0 / weightp=2 / keyint=250 / keyint_min=25 / scenecut=40 / intra_refresh=0 / rc_lookahead=40 / rc=2pass / mbtree=1 / bitrate=1700 / ratetol=1.0 / qcomp=0.60 / qpmin=0 / qpmax=39 / qpstep=4 / cplxblur=20.0 / qblur=0.5 / ip_ratio=1.40 / aq=1:1.00
Default : Да
Forced : Нет
Цветовой диапазон : Limited
Основные цвета : BT.601 PAL
Характеристики трансфера : BT.470 System B, BT.470 System G
Коэффициенты матрицы : BT.601

Аудио
Идентификатор : 2
Формат : AC-3
Формат/Информация : Audio Coding 3
Расширение режима : CM (complete main)
Параметр Endianness формата : Big
Идентификатор кодека : A_AC3
Продолжительность : 44 м. 11 с.
Вид битрейта : Постоянный
Битрейт : 192 Кбит/сек
Каналы : 2 канала
Расположение каналов : Front: L R
Частота : 48,0 КГц
Частота кадров : 31,250 кадров/сек (1536 spf)
Битовая глубина : 16 бит
Метод сжатия : С потерями
Размер потока : 60,7 Мбайт (10%)
Default : Да
Forced : Нет

Информация о торренте:
Размер содержимого: 2.3 GB
Скачан: 810 раз
Статус: Проверен
Зарегистрирован на трекере: 2018-10-13 18:56
Скачать торрент


Поддержи раздачу — поставь лайк:
BLIZNEC W
2018-10-13 18:56
Интересного и приятного просмотра!!!

Мои раздачи
Писать комментарии на нашем торрент-трекере могут только зарегистрированные пользователи.
Зарегистрируйтесь или авторизируйтесь на сайте.