»
»

Скачать сериал Лучше звоните Солу, 4 сезон 1-10 серии из 10 / Better Call Saul [IdeaFilm] (Винс Гиллиган, Джон Шибан) [2018, драма, комедия, криминал, WEB-DLRip, Р] - торрент

Нажмите на синюю кнопку, чтобы скачать сериал через торрент бесплатно. Сериал доступен на нашем торрент-трекере бесплатно, без регистрации и смс.

Статистика раздачи
4 [ 0 b/s ] ↑ 7.4 GB ↓ 1 [ 0 b/s ]
Автор Сообщение
D4IVER
2018-08-08 23:39
Лучше звоните Солу / Better Call Saul
Лучше звоните Солу, 4 сезон 1-10 серии из 10 / Better Call Saul [IdeaFilm]
Перевод: Профессиональный (многоголосый, закадровый) IdeaFilm
Субтитры: отсутствуют
Формат: WEB-DLRip, AVI, XviD, AC3
Страна: США
Режиссер: Винс Гиллиган, Джон Шибан
Жанр: Драма, комедия, криминал
Всего серий: 10
Продолжительность: 10 х ~ 00:50:00
Год выпуска: 2018

В ролях: Боб Оденкёрк, Майкл Мэндо, Джонатан Бэнкс, Ри Сихорн, Патрик Фабиан, Керри Кондон, Джанкарло Эспозито, Винсент Фуэнтес, Эбигейл Зои Льюис, Эрик Стейниг

Описание: История об испытаниях и невзгодах, которые приходится преодолеть Солу Гудману, адвокату по уголовным делам, в тот период, когда он пытается открыть свою собственную адвокатскую контору в Альбукерке, штат Нью-Мексико.

[imdb=http://www.imdb.com/title/tt3032476/]

Видео: 720x400 (16:9), 23.976 fps, XviD MPEG-4 ~1730 kbps avg, 0.251 bit/pixel
Аудио #1 Rus: 48 kHz, AC3 Dolby Digital, 3/2 (L,C,R,l,r) + LFE ch, ~384 kbps

Внимание, присутствует реклама!

MediaInfo

Video
ID : 0
Format : MPEG-4 Visual
Format profile : Advanced Simple@L5
Format settings, BVOP : 2
Format settings, QPel : No
Format settings, GMC : No warppoints
Format settings, Matrix : Default (H.263)
Muxing mode : Packed bitstream
Codec ID : XVID
Codec ID/Hint : XviD
Duration : 49 min 8 s
Bit rate : 1 730 kb/s
Width : 720 pixels
Height : 400 pixels
Display aspect ratio : 16:9
Frame rate : 23.976 (24000/1001) FPS
Color space : YUV
Chroma subsampling : 4:2:0
Bit depth : 8 bits
Scan type : Progressive
Compression mode : Lossy
Bits/(Pixel*Frame) : 0.251
Stream size : 608 MiB (81%)
Writing library : XviD 73

Audio
ID : 1
Format : AC-3
Format/Info : Audio Coding 3
Format settings, Endianness : Big
Codec ID : 2000
Duration : 49 min 8 s
Bit rate mode : Constant
Bit rate : 384 kb/s
Channel(s) : 6 channels
Channel positions : Front: L C R, Side: L R, LFE
Sampling rate : 48.0 kHz
Frame rate : 31.250 FPS (1536 SPF)
Bit depth : 16 bits
Compression mode : Lossy
Stream size : 135 MiB (18%)
Alignment : Aligned on interleaves
Interleave, duration : 42 ms (1.00 video frame)
Interleave, preload duratio : 512 ms
Service kind : Complete MainVideo


Информация о торренте:
Размер содержимого: 7.4 GB
Скачан: 1646 раз
Статус: Проверен
Зарегистрирован на трекере: 2018-10-16 01:18
Скачать торрент


Поддержи раздачу — поставь лайк:
да в пень
2018-08-09 14:06
не вижу кнопки " следить за добавлением новых серий"
D4IVER
2018-08-09 19:12
да в пень написал(а):
не вижу кнопки " следить за добавлением новых серий"


Скорее всего ее не было из-за того, что релиз не был обработан модератором.
Загляните сейчас)
да в пень
2018-08-09 20:51
D4IVER написал(а):
да в пень написал(а):
не вижу кнопки " следить за добавлением новых серий"


Скорее всего ее не было из-за того, что релиз не был обработан модератором.
Загляните сейчас)
спасибо нашёл. или я просто туповат и слеповат
Ksu001
2018-10-16 19:34
Спасибо за релиз.

Сериал нравится, хоть он с приличной ноткой пессимизма
Писать комментарии на нашем торрент-трекере могут только зарегистрированные пользователи.
Зарегистрируйтесь или авторизируйтесь на сайте.