»
»

Скачать сериал Лучше звоните Солу, 4 сезон 1-10 серии из 10 / Better Call Saul [IdeaFilm] (Винс Гиллиган, Джон Шибан) [2018, драма, комедия, криминал, WEB-DLRip 1080p, Р] - торрент

Нажмите на синюю кнопку ниже, чтобы скачать сериал бесплатно через торрент. Сериал доступен на нашем торрент-трекере бесплатно, без регистрации и смс.

Статистика раздачи
4 [ 0 b/s ] ↑ 27.6 GB ↓ 3 [ 0 b/s ]
Автор Сообщение
D4IVER
2018-08-08 23:38
Лучше звоните Солу / Better Call Saul
Лучше звоните Солу, 4 сезон 1-10 серии из 10 / Better Call Saul [IdeaFilm]
Перевод: Профессиональный (многоголосый, закадровый) IdeaFilm
Субтитры: отсутствуют
Формат: WEB-DLRip 1080p, MKV, H.264, AC3
Страна: США
Режиссер: Винс Гиллиган, Джон Шибан
Жанр: Драма, комедия, криминал
Всего серий: 10
Продолжительность: 10 х ~ 00:50:00
Год выпуска: 2018

В ролях: Боб Оденкёрк, Майкл Мэндо, Джонатан Бэнкс, Ри Сихорн, Патрик Фабиан, Керри Кондон, Джанкарло Эспозито, Винсент Фуэнтес, Эбигейл Зои Льюис, Эрик Стейниг

Описание: История об испытаниях и невзгодах, которые приходится преодолеть Солу Гудману, адвокату по уголовным делам, в тот период, когда он пытается открыть свою собственную адвокатскую контору в Альбукерке, штат Нью-Мексико.

[imdb=http://www.imdb.com/title/tt3032476/]

Видео: 1920x1080 (16:9), 23,976 fps, AVC (х264), Main@L4.1, ~6862 Kbps avg, 0.138 bit/pixel
Аудио #1 Rus: 48 kHz, AC3 Dolby Digital, 3/2 (L,C,R,l,r) + LFE ch, ~384 kbps
Аудио #2 Eng: 48 kHz, AC3 Dolby Digital, 3/2 (L,C,R,l,r) + LFE ch, ~640 kbps

Внимание, присутствует реклама!

MediaInfo

Video
ID : 1
Format : AVC
Format/Info : Advanced Video Codec
Format profile : Main@L4.1
Format settings, CABAC : Yes
Format settings, RefFrames : 4 frames
Codec ID : V_MPEG4/ISO/AVC
Duration : 49 min 8 s
Bit rate : 6 862 kb/s
Width : 1 920 pixels
Height : 1 080 pixels
Display aspect ratio : 16:9
Frame rate mode : Constant
Frame rate : 23.976 (24000/1001) FPS
Standard : NTSC
Color space : YUV
Chroma subsampling : 4:2:0
Bit depth : 8 bits
Scan type : Progressive
Bits/(Pixel*Frame) : 0.138
Stream size : 2.36 GiB (87%)
Language : English
Default : Yes
Forced : No
Color range : Limited
Color primaries : BT.709
Transfer characteristics : BT.709
Matrix coefficients : BT.709

Audio #1
ID : 2
Format : AC-3
Format/Info : Audio Coding 3
Format settings, Endianness : Big
Codec ID : A_AC3
Duration : 49 min 9 s
Bit rate mode : Constant
Bit rate : 384 kb/s
Channel(s) : 6 channels
Channel positions : Front: L C R, Side: L R, LFE
Sampling rate : 48.0 kHz
Frame rate : 31.250 FPS (1536 SPF)
Bit depth : 16 bits
Compression mode : Lossy
Stream size : 135 MiB (5%)
Title : IDEAFILM
Language : Russian
Service kind : Complete Main
Default : Yes
Forced : No

Audio #2
ID : 3
Format : AC-3
Format/Info : Audio Coding 3
Codec ID : A_AC3
Duration : 48 min 28 s
Bit rate : 640 kb/s
Channel(s) : 6 channels
Sampling rate : 48.0 kHz
Frame rate : 31.250 FPS (1536 SPF)
Compression mode : Lossy
Stream size : 222 MiB (8%)
Language : English
Default : No
Forced : No

Информация о торренте:
Размер содержимого: 27.6 GB
Скачан: 1153 раза
Статус: Проверен
Зарегистрирован на трекере: 2018-10-16 01:17
Скачать торрент


Поддержи раздачу — поставь лайк:
Писать комментарии на нашем торрент-трекере могут только зарегистрированные пользователи.
Зарегистрируйтесь или авторизируйтесь на сайте.