»
»

Скачать мультфильм Город Героев: Новая История, 1 сезон 1-23 серии из 23 / Big Hero 6: The Series (Стивен Хеневельд, Бен Джуоно, Николас Филиппи) [2017, фантастика, комедия, приключения, мультсериал, WEB-DLRip] MVO - торрент

Нажмите синюю кнопку, чтобы cкачать бесплатно через торрент мультфильм. Мультфильм доступен на нашем торрент-трекере бесплатно, без регистрации и смс.

Статистика раздачи
8 [ 0 b/s ] ↑ 7.8 GB ↓ 0 [ 0 b/s ]
Автор Сообщение
D4IVER
2018-08-03 12:12
Город Героев: Новая История / Big Hero 6: The Series
Город Героев: Новая История, 1 сезон 1-23 серии из 23 / Big Hero 6: The Series
Перевод: Профессиональный (многоголосый, закадровый) IdeaFilm
Субтитры: отсутствуют
Формат: WEB-DLRip, AVI, XviD, AC3
Страна: США
Режиссер: Стивен Хеневельд, Бен Джуоно, Николас Филиппи
Жанр: Фантастика, комедия, приключения, мультсериал
Всего серий: 23
Продолжительность: 23 х ~ 00:23:00
Год выпуска: 2017

В ролях: Скотт Эдсит, Джейми Чанг, Дженифер Льюис, Хари Пэйтон, Райан Поттер, Дэвид Шонесси, Хейли Тджу, Брукс Уилан, Энди Рихтер

Описание: Хиро Хамада поступил в Технический университет Сан-Франсокио, где учился его старший брат Тадаши. В первый же день в университете юный герой оказался в лаборатории Тадаши и нашел там микрочип Бэймакса. С помощью этого устройства Хиро надеялся восстановить робота, но его поспешные действия привели к неожиданным последствиям.

[imdb=http://www.imdb.com/title/tt5515212/]

Видео: 720x400 (16:9), 23.976 fps, XviD MPEG-4 ~1794 kbps avg, 0.60 bit/pixel
Аудио #1 Rus: 48 kHz, AC3 Dolby Digital, 2/0 (L,R), ~192 kbps

Внимание, присутствует реклама!

MediaInfo

Video
ID : 0
Format : MPEG-4 Visual
Format profile : Advanced Simple@L5
Format settings, BVOP : 2
Format settings, QPel : No
Format settings, GMC : No warppoints
Format settings, Matrix : Default (H.263)
Muxing mode : Packed bitstream
Codec ID : XVID
Codec ID/Hint : XviD
Duration : 22 min 46 s
Bit rate : 1 794 kb/s
Width : 720 pixels
Height : 400 pixels
Display aspect ratio : 16:9
Frame rate : 23.976 (24000/1001) FPS
Color space : YUV
Chroma subsampling : 4:2:0
Bit depth : 8 bits
Scan type : Progressive
Compression mode : Lossy
Bits/(Pixel*Frame) : 0.260
Stream size : 292 MiB (90%)
Writing library : XviD 73

Audio
ID : 1
Format : AC-3
Format/Info : Audio Coding 3
Format settings, Endianness : Big
Codec ID : 2000
Duration : 22 min 46 s
Bit rate mode : Constant
Bit rate : 192 kb/s
Channel(s) : 2 channels
Channel positions : Front: L R
Sampling rate : 48.0 kHz
Frame rate : 31.250 FPS (1536 SPF)
Bit depth : 16 bits
Compression mode : Lossy
Stream size : 31.3 MiB (10%)
Alignment : Aligned on interleaves
Interleave, duration : 42 ms (1.00 video frame)
Interleave, preload duratio : 512 ms
Service kind : Complete Main

Информация о торренте:
Размер содержимого: 7.8 GB
Скачан: 1112 раз
Статус: Обновляемая раздача
Зарегистрирован на трекере: 2018-10-18 00:45
Скачать торрент


Поддержи раздачу — поставь лайк:
E-mail:
* Это обновляемая раздача и мы можем вас информировать об обновлении торрента в ней.

Shamunki
2018-08-29 19:28
И где серии? как было до 16 так и осталось!!!
Писать комментарии на нашем торрент-трекере могут только зарегистрированные пользователи.
Зарегистрируйтесь или авторизируйтесь на сайте.