»
»

Скачать мультфильм Город Героев: Новая История, 1 сезон 1-23 серии из 23 / Big Hero 6: The Series (Стивен Хеневельд, Бен Джуоно, Николас Филиппи) [2017, фантастика, комедия, приключения, мультсериал, WEB-DLRip 720p] MVO+Original - торрент

Скачать мультфильм бесплатно через торрент. Мультфильм доступен на нашем торрент-трекере бесплатно, без регистрации и смс.

Статистика раздачи
3 [ 0 b/s ] ↑ 17.8 GB ↓ 0 [ 0 b/s ]
Автор Сообщение
D4IVER
2018-08-03 12:11
Город Героев: Новая История / Big Hero 6: The Series
Город Героев: Новая История, 1 сезон 1-23 серии из 23 / Big Hero 6: The Series
Перевод: Профессиональный (многоголосый, закадровый) IdeaFilm
Субтитры: отсутствуют
Формат: WEB-DLRip 720p, MKV, H.264, AC3
Страна: США
Режиссер: Стивен Хеневельд, Бен Джуоно, Николас Филиппи
Жанр: Фантастика, комедия, приключения, мультсериал
Всего серий: 23
Продолжительность: 23 х ~ 00:23:00
Год выпуска: 2017

В ролях: Скотт Эдсит, Джейми Чанг, Дженифер Льюис, Хари Пэйтон, Райан Поттер, Дэвид Шонесси, Хейли Тджу, Брукс Уилан, Энди Рихтер

Описание: Хиро Хамада поступил в Технический университет Сан-Франсокио, где учился его старший брат Тадаши. В первый же день в университете юный герой оказался в лаборатории Тадаши и нашел там микрочип Бэймакса. С помощью этого устройства Хиро надеялся восстановить робота, но его поспешные действия привели к неожиданным последствиям.

[imdb=http://www.imdb.com/title/tt5515212/]

Видео: 1280x720 (16:9), 23,976 fps, AVC (х264), Main@L4.1, ~3978 kbps avg, 0.180 bit/pixel
Аудио #1: Русский: 48 kHz, AC3 Dolby Digital, 2/0 (L,R), ~192 kbps
Аудио #2: Английский: 48 kHz, AC3 Dolby Digital, 2/0 (L,R), ~384 kbps

Внимание, присутствует реклама!

MediaInfo

Video
ID : 1
Format : AVC
Format/Info : Advanced Video Codec
Format profile : Main@L4.1
Format settings, CABAC : Yes
Format settings, RefFrames : 4 frames
Codec ID : V_MPEG4/ISO/AVC
Duration : 22 min 46 s
Bit rate : 3 978 kb/s
Width : 1 280 pixels
Height : 720 pixels
Display aspect ratio : 16:9
Frame rate mode : Constant
Frame rate : 23.976 (24000/1001) FPS
Standard : NTSC
Color space : YUV
Chroma subsampling : 4:2:0
Bit depth : 8 bits
Scan type : Progressive
Bits/(Pixel*Frame) : 0.180
Stream size : 648 MiB (88%)
Language : English
Default : Yes
Forced : No
Color range : Limited
Color primaries : BT.709
Transfer characteristics : BT.709
Matrix coefficients : BT.709

Audio #1
ID : 2
Format : AC-3
Format/Info : Audio Coding 3
Format settings, Endianness : Big
Codec ID : A_AC3
Duration : 22 min 46 s
Bit rate mode : Constant
Bit rate : 192 kb/s
Channel(s) : 2 channels
Channel positions : Front: L R
Sampling rate : 48.0 kHz
Frame rate : 31.250 FPS (1536 SPF)
Bit depth : 16 bits
Compression mode : Lossy
Stream size : 31.3 MiB (4%)
Title : IDEAFILM
Language : Russian
Service kind : Complete Main
Default : Yes
Forced : No

Audio #2
ID : 3
Format : AC-3
Format/Info : Audio Coding 3
Codec ID : A_AC3
Duration : 22 min 6 s
Bit rate : 384 kb/s
Channel(s) : 2 channels
Sampling rate : 48.0 kHz
Frame rate : 31.250 FPS (1536 SPF)
Compression mode : Lossy
Stream size : 60.7 MiB (8%)
Language : English
Default : No
Forced : No

Информация о торренте:
Размер содержимого: 17.8 GB
Скачан: 886 раз
Статус: Обновляемая раздача
Зарегистрирован на трекере: 2018-10-18 00:45
Скачать торрент


Поддержи раздачу — поставь лайк:
E-mail:
* Это обновляемая раздача и мы можем вас информировать об обновлении торрента в ней.

Писать комментарии на нашем торрент-трекере могут только зарегистрированные пользователи.
Зарегистрируйтесь или авторизируйтесь на сайте.